找回密码
 立即注册

QQ登录

只需一步,快速开始

查看: 12|回复: 0

[其他] 回归 Volver.2006.SPANISH.2160p.BluRay.x264.8bit.SDR.DTS-HD.MA.5.1-SWTYBLZ 41.78GB

[复制链接]

0

精华

0

好友

2

听众

新手上路

Rank: 2

蓝光币
5
发表于 7 天前 | 显示全部楼层 |阅读模式
[img][/img]

◎标  题 回归
◎译  名 浮花(港) / 玩美女人(台) / To Return
◎片  名 Volver
◎年  代 2006
◎产  地 西班牙
◎类  别 剧情 / 喜剧 / 悬疑 / 犯罪
◎语  言 西班牙语
◎上映日期 2006-03-17(西班牙)
◎IMDb评分 7.6/10 (98441人评价)
◎IMDb链接 https://www.imdb.com/title/tt0441909/
◎豆瓣评分 8.2/10 (41108人评价)
◎豆瓣链接 https://movie.douban.com/subject/1689787/
◎片  长 121 分钟
◎导  演 佩德罗·阿莫多瓦 Pedro Almodóvar
◎编  剧 佩德罗·阿莫多瓦 Pedro Almodóvar
◎演  员 佩内洛普·克鲁兹 Penélope Cruz
       卡门·毛拉 Carmen Maura
       洛拉·杜埃尼亚斯 Lola Dueñas
       布兰卡·波蒂略 Blanca Portillo
       约阿娜·科沃 Yohana Cobo
       丘斯·兰普雷亚维 Chus Lampreave
       安东尼奥·德·拉·托雷 Antonio de la Torre
       卡洛斯·布兰科 Carlos Blanco
       阿古斯丁·阿莫多瓦 Agustín Almodóvar
       友兰达·拉莫斯 Yolanda Ramos
       佩拉·卡斯特罗 Pilar Castro
       玛利亚·迪亚兹 María Isabel Díaz
       莱昂德洛·里维拉 Leandro Rivera
       内乌丝·桑兹 Neus Sanz
       卡门·马奇 Carmen Machi
        Carlos García Cambero
       阿古斯丁·阿莫多瓦 Agustín Almodóvar
       埃丝特·加西亚 Esther García
       阿尔维托·伊格莱西亚斯 Alberto Iglesias
       何塞·路易斯·阿尔凯内 José Luis Alcaine
       何塞·萨尔赛多 José Salcedo
       路易斯·纳斯克 Luis San Narciso
       Salvador Parra Salvador Parra
       佩纳·戴格勒 Bina Daigeler
       Ana Lozano Ana Lozano
       Mariló Osuna Mariló Osuna
       Massimo Gattabrusi Massimo Gattabrusi
       Thorsten Rienth Thorsten Rienth
       Ramón Ramos Ramón Ramos
       Eduardo Díaz Eduardo Díaz
◎标  签 西班牙 / 阿莫多瓦 / 女性 / 西班牙电影 / PedroAlmodóvar / 阿尔莫多瓦 / 2006 / 剧情
◎简  介

  雷蒙黛(佩内洛普•克鲁兹 Penélope Cruz饰)和他的酒鬼丈夫、年轻女儿共住,生活却不像别人平静。 雷蒙黛有个姐姐索尔(劳拉•杜纳丝 Lola Dueñas饰),小时候两人和父母生活贫寒。父母在一场火灾后遇难后,两姊妹就搬到了马德里生活,为着各自生活已经渐渐疏远。然而,一场意外和一个鬼魂,打破了两姐妹平静的生活。
  1. Video
  2. ID                                       : 1
  3. Format                                   : AVC
  4. Format/Info                              : Advanced Video Codec
  5. Format profile                           : [email protected]
  6. Format settings                          : CABAC / 5 Ref Frames
  7. Format settings, CABAC                   : Yes
  8. Format settings, Reference frames        : 5 frames
  9. Codec ID                                 : V_MPEG4/ISO/AVC
  10. Duration                                 : 2 h 0 min
  11. Bit rate                                 : 46.4 Mb/s
  12. Width                                    : 3 840 pixels
  13. Height                                   : 1 634 pixels
  14. Display aspect ratio                     : 2.35:1
  15. Frame rate mode                          : Constant
  16. Frame rate                               : 23.976 (24000/1001/189150) FPS
  17. Color space                              : YUV
  18. Chroma subsampling                       : 4:2:0
  19. Bit depth                                : 8 bits
  20. Scan type                                : Progressive
  21. Bits/(Pixel*Frame)                       : 0.308
  22. Stream size                              : 39.2 GiB (94%)
  23. Writing library                          : x264 core 157 r2935 545de2f
  24. Encoding settings                        : cabac=1 / ref=5 / deblock=1:-1:-1 / analyse=0x3:0x113 / me=umh / subme=10 / psy=1 / psy_rd=1.00:0.15 / mixed_ref=1 / me_range=48 / chroma_me=1 / trellis=2 / 8x8dct=1 / cqm=0 / deadzone=21,11 / fast_pskip=1 / chroma_qp_offset=-3 / threads=51 / lookahead_threads=4 / sliced_threads=0 / nr=0 / decimate=0 / interlaced=0 / bluray_compat=0 / constrained_intra=0 / bframes=3 / b_pyramid=2 / b_adapt=2 / b_bias=0 / direct=3 / weightb=1 / open_gop=0 / weightp=2 / keyint=250 / keyint_min=23 / scenecut=40 / intra_refresh=0 / rc_lookahead=50 / rc=crf / mbtree=1 / crf=18.0 / qcomp=0.60 / qpmin=0 / qpmax=69 / qpstep=4 / ip_ratio=1.40 / aq=1:1.00
  25. Default                                  : Yes
  26. Forced                                   : No
  27. Audio #1
  28. ID                                       : 2
  29. ID in the original source medium         : 4352 (0x1100)
  30. Format                                   : DTS XLL
  31. Format/Info                              : Digital Theater Systems
  32. Commercial name                          : DTS-HD Master Audio
  33. Codec ID                                 : A_DTS
  34. Duration                                 : 2 h 0 min
  35. Bit rate mode                            : Variable
  36. Bit rate                                 : 2 144 kb/s
  37. Channel(s)                               : 6 channels
  38. Channel layout                           : C L R Ls Rs LFE
  39. Sampling rate                            : 48.0 kHz
  40. Frame rate                               : 93.750 FPS (512 SPF)
  41. Bit depth                                : 16 bits
  42. Compression mode                         : Lossless
  43. Stream size                              : 1.81 GiB (4%)
  44. Title                                    : DTS-HD MA 5.1
  45. Language                                 : Spanish
  46. Default                                  : Yes
  47. Forced                                   : No
  48. Original source medium                   : Blu-ray
  49. Audio #2
  50. ID                                       : 3
  51. Format                                   : AC-3
  52. Format/Info                              : Audio Coding 3
  53. Commercial name                          : Dolby Digital
  54. Codec ID                                 : A_AC3
  55. Duration                                 : 2 h 0 min
  56. Bit rate mode                            : Constant
  57. Bit rate                                 : 640 kb/s
  58. Channel(s)                               : 6 channels
  59. Channel layout                           : L R C LFE Ls Rs
  60. Sampling rate                            : 48.0 kHz
  61. Frame rate                               : 31.250 FPS (1536 SPF)
  62. Compression mode                         : Lossy
  63. Stream size                              : 553 MiB (1%)
  64. Title                                    : DD 5.1
  65. Language                                 : Spanish
  66. Service kind                             : Complete Main
  67. Default                                  : No
  68. Forced                                   : No
  69. Text #1
  70. ID                                       : 4
  71. Format                                   : UTF-8
  72. Codec ID                                 : S_TEXT/UTF8
  73. Codec ID/Info                            : UTF-8 Plain Text
  74. Duration                                 : 1 h 52 min
  75. Bit rate                                 : 56 b/s
  76. Frame rate                               : 0.232 FPS
  77. Count of elements                        : 1564
  78. Stream size                              : 46.8 KiB (0%)
  79. Language                                 : English
  80. Default                                  : Yes
  81. Forced                                   : No
  82. Text #2
  83. ID                                       : 5
  84. Format                                   : UTF-8
  85. Codec ID                                 : S_TEXT/UTF8
  86. Codec ID/Info                            : UTF-8 Plain Text
  87. Duration                                 : 1 h 53 min
  88. Bit rate                                 : 59 b/s
  89. Frame rate                               : 0.245 FPS
  90. Count of elements                        : 1666
  91. Stream size                              : 49.6 KiB (0%)
  92. Title                                    : SDH
  93. Language                                 : English
  94. Default                                  : No
  95. Forced                                   : No
  96. Text #3
  97. ID                                       : 6
  98. ID in the original source medium         : 4768 (0x12A0)
  99. Format                                   : PGS
  100. Muxing mode                              : zlib
  101. Codec ID                                 : S_HDMV/PGS
  102. Codec ID/Info                            : Picture based subtitle format used on BDs/HD-DVDs
  103. Duration                                 : 1 h 53 min
  104. Bit rate                                 : 35.2 kb/s
  105. Frame rate                               : 0.507 FPS
  106. Count of elements                        : 3454
  107. Stream size                              : 28.6 MiB (0%)
  108. Language                                 : English
  109. Default                                  : No
  110. Forced                                   : No
  111. Original source medium                   : Blu-ray
  112. Text #4
  113. ID                                       : 7
  114. ID in the original source medium         : 4769 (0x12A1)
  115. Format                                   : PGS
  116. Muxing mode                              : zlib
  117. Codec ID                                 : S_HDMV/PGS
  118. Codec ID/Info                            : Picture based subtitle format used on BDs/HD-DVDs
  119. Duration                                 : 1 h 52 min
  120. Bit rate                                 : 32.8 kb/s
  121. Frame rate                               : 0.475 FPS
  122. Count of elements                        : 3200
  123. Stream size                              : 26.4 MiB (0%)
  124. Language                                 : English
  125. Default                                  : No
  126. Forced                                   : No
  127. Original source medium                   : Blu-ray
  128. Text #5
  129. ID                                       : 8
  130. ID in the original source medium         : 4770 (0x12A2)
  131. Format                                   : PGS
  132. Muxing mode                              : zlib
  133. Codec ID                                 : S_HDMV/PGS
  134. Codec ID/Info                            : Picture based subtitle format used on BDs/HD-DVDs
  135. Duration                                 : 1 h 55 min
  136. Bit rate                                 : 62.6 kb/s
  137. Frame rate                               : 0.601 FPS
  138. Count of elements                        : 4173
  139. Stream size                              : 51.8 MiB (0%)
  140. Language                                 : English
  141. Default                                  : No
  142. Forced                                   : No
  143. Original source medium                   : Blu-ray
  144. Menu
  145. 00:00:00.000                             : en:Chapter 01
  146. 00:07:44.005                             : en:Chapter 02
  147. 00:12:26.454                             : en:Chapter 03
  148. 00:22:26.178                             : en:Chapter 04
  149. 00:26:48.315                             : en:Chapter 05
  150. 00:34:35.656                             : en:Chapter 06
  151. 00:40:51.907                             : en:Chapter 07
  152. 00:49:41.853                             : en:Chapter 08
  153. 00:59:01.287                             : en:Chapter 09
  154. 01:08:01.535                             : en:Chapter 10
  155. 01:15:57.219                             : en:Chapter 11
  156. 01:24:18.386                             : en:Chapter 12
  157. 01:30:43.938                             : en:Chapter 13
  158. 01:38:45.085                             : en:Chapter 14
  159. 01:44:07.491                             : en:Chapter 15
  160. 01:49:36.361                             : en:Chapter 16
复制代码




                                       
                                       

                                       
                                       
                                       




Volver.2006.SPANISH.2160p.BluRay.x264.8bit.SDR.DTS-HD.MA.5.1-SWTYBLZ.torrent (52.93 KB, 下载次数: 0)
回复

使用道具 举报

您需要登录后才可以回帖 登录 | 立即注册

本版积分规则

QQ|Archiver|手机版|小黑屋|蓝光电影网

GMT+8, 2022-11-30 11:36 , Processed in 0.051343 second(s), 28 queries .

Powered by Discuz! X3.4

Copyright © 2001-2020, Tencent Cloud.

快速回复 返回顶部 返回列表