找回密码
 立即注册

QQ登录

只需一步,快速开始

查看: 262|回复: 5

[其他] 阿尔塞纳·温格:不败之师 Arsene.Wenger.Invincible.2021.1080p.BluRay.x264-ORBS 9.55GB

[复制链接]

0

精华

0

好友

2

听众

新手上路

Rank: 2

蓝光币
5
发表于 2022-10-9 07:15:46 | 显示全部楼层 |阅读模式
[img][/img]

◎标  题 阿尔塞纳·温格:不败之师
◎片  名 Arsène Wenger: Invincible
◎年  代 2021
◎产  地 英国
◎类  别 纪录片 / 传记 / 运动
◎语  言 英语
◎上映日期 2021-11-11(英国)
◎IMDb评分 7.8/10 (696人评价)
◎IMDb链接 https://www.imdb.com/title/tt14079218/
◎豆瓣评分 9.5/10 (660人评价)
◎豆瓣链接 https://movie.douban.com/subject/35627658/
◎片  长 95分钟
◎演  员 阿尔赛纳·温格 Arsène Wenger
       蒂埃里·亨利 Thierry Henry
       弗格森爵士 Alex Ferguson
       艾曼努尔·佩蒂特 Emmanuel Petit
       帕特里克·维埃拉 Patrick Vieira
       马丁·基翁 Martin Keown
       李·迪克逊 Lee Dixon
       托尼·亚当斯 Tony Adams
       丹尼斯·博格坎普 Dennis Bergkamp
       伊恩·赖特 Ian Wright
       罗伯特·皮雷 Robert Pirès
◎简  介

  The definitive documentary about Arsène Wenger, the man who transformed Arsenal into the legendary football club it is today.
  1. Video
  2. ID                                       : 1
  3. Format                                   : AVC
  4. Format/Info                              : Advanced Video Codec
  5. Format profile                           : [email protected]
  6. Format settings                          : CABAC / 5 Ref Frames
  7. Format settings, CABAC                   : Yes
  8. Format settings, Reference frames        : 5 frames
  9. Codec ID                                 : V_MPEG4/ISO/AVC
  10. Duration                                 : 1 h 35 min
  11. Bit rate                                 : 11.1 Mb/s
  12. Width                                    : 1 920 pixels
  13. Height                                   : 804 pixels
  14. Display aspect ratio                     : 2.40:1
  15. Frame rate mode                          : Constant
  16. Frame rate                               : 25.000 FPS
  17. Color space                              : YUV
  18. Chroma subsampling                       : 4:2:0
  19. Bit depth                                : 8 bits
  20. Scan type                                : Progressive
  21. Bits/(Pixel*Frame)                       : 0.287
  22. Stream size                              : 7.38 GiB (77%)
  23. Writing library                          : x264 core 164 r3095 baee400
  24. Encoding settings                        : cabac=1 / ref=5 / deblock=1:-3:-3 / analyse=0x3:0x133 / me=umh / subme=10 / psy=1 / psy_rd=1.20:0.00 / mixed_ref=1 / me_range=24 / chroma_me=1 / trellis=2 / 8x8dct=1 / cqm=0 / deadzone=21,11 / fast_pskip=0 / chroma_qp_offset=-2 / threads=24 / lookahead_threads=4 / sliced_threads=0 / nr=0 / decimate=0 / interlaced=0 / bluray_compat=0 / constrained_intra=0 / bframes=8 / b_pyramid=2 / b_adapt=2 / b_bias=0 / direct=3 / weightb=1 / open_gop=0 / weightp=2 / keyint=250 / keyint_min=25 / scenecut=40 / intra_refresh=0 / rc_lookahead=60 / rc=crf / mbtree=1 / crf=16.0 / qcomp=0.60 / qpmin=0 / qpmax=69 / qpstep=4 / ip_ratio=1.40 / aq=3:0.90
  25. Default                                  : Yes
  26. Forced                                   : No
  27. Color range                              : Limited
  28. Matrix coefficients                      : BT.709

  29. Audio
  30. ID                                       : 2
  31. Format                                   : DTS XLL
  32. Format/Info                              : Digital Theater Systems
  33. Commercial name                          : DTS-HD Master Audio
  34. Codec ID                                 : A_DTS
  35. Duration                                 : 1 h 35 min
  36. Bit rate mode                            : Variable
  37. Bit rate                                 : 3 234 kb/s
  38. Channel(s)                               : 6 channels
  39. Channel layout                           : C L R Ls Rs LFE
  40. Sampling rate                            : 48.0 kHz
  41. Frame rate                               : 93.750 FPS (512 SPF)
  42. Bit depth                                : 24 bits
  43. Compression mode                         : Lossless
  44. Stream size                              : 2.16 GiB (23%)
  45. Language                                 : English
  46. Default                                  : Yes
  47. Forced                                   : No

  48. Text
  49. ID                                       : 3
  50. Format                                   : PGS
  51. Muxing mode                              : zlib
  52. Codec ID                                 : S_HDMV/PGS
  53. Codec ID/Info                            : Picture based subtitle format used on BDs/HD-DVDs
  54. Duration                                 : 1 h 33 min
  55. Bit rate                                 : 49.0 kb/s
  56. Count of elements                        : 2914
  57. Stream size                              : 32.6 MiB (0%)
  58. Title                                    : SDH
  59. Language                                 : English
  60. Default                                  : No
  61. Forced                                   : No

  62. Menu
  63. 00:00:00.000                             : Chapter 01
  64. 00:06:15.920                             : Chapter 02
  65. 00:11:02.440                             : Chapter 03
  66. 00:17:10.920                             : Chapter 04
  67. 00:22:55.000                             : Chapter 05
  68. 00:28:28.160                             : Chapter 06
  69. 00:36:58.000                             : Chapter 07
  70. 00:47:09.880                             : Chapter 08
  71. 00:57:46.560                             : Chapter 09
  72. 01:10:43.640                             : Chapter 10
  73. 01:20:52.520                             : Chapter 11
  74. 01:28:47.040                             : Chapter 12
  75. 01:35:24.360                             : Chapter 13
复制代码




                                       
                                       

                                       
                                       
                                       




Arsene.Wenger.Invincible.2021.1080p.BluRay.x264-ORBS.torrent (24.63 KB, 下载次数: 3)
回复

使用道具 举报

0

精华

0

好友

3

听众

新手上路

Rank: 1

蓝光币
0
发表于 2022-10-22 22:54:49 | 显示全部楼层
谢谢共享
回复

使用道具 举报

 成长值: 415

0

精华

0

好友

3

听众

尊贵用户

Rank: 1

蓝光币
0
发表于 2022-10-24 17:38:16 | 显示全部楼层
喜欢看的电影
回复

使用道具 举报

0

精华

0

好友

2

听众

新手上路

Rank: 1

蓝光币
0
发表于 2022-11-1 09:42:50 | 显示全部楼层
谢谢分享
回复

使用道具 举报

0

精华

0

好友

2

听众

新手上路

Rank: 1

蓝光币
0
发表于 2022-11-3 08:52:18 | 显示全部楼层
如何可以下载呢
回复

使用道具 举报

0

精华

0

好友

4

听众

新手上路

Rank: 1

蓝光币
0
发表于 2022-11-12 23:11:31 | 显示全部楼层
没金币也收藏,谢谢分享!
回复

使用道具 举报

您需要登录后才可以回帖 登录 | 立即注册

本版积分规则

QQ|Archiver|手机版|小黑屋|蓝光电影网

GMT+8, 2022-11-30 11:11 , Processed in 0.057549 second(s), 28 queries .

Powered by Discuz! X3.4

Copyright © 2001-2020, Tencent Cloud.

快速回复 返回顶部 返回列表