找回密码
 立即注册

QQ登录

只需一步,快速开始

查看: 76|回复: 0

[剧情片] 地陷 Sinkhole.2021.KOREAN.1080p.BluRay.x264.DDP5.1-c0kE 14.70GB

[复制链接]

0

精华

0

好友

2

听众

新手上路

Rank: 2

蓝光币
5
发表于 2022-9-23 07:04:54 | 显示全部楼层 |阅读模式
[img][/img]

◎标  题 地陷
◎译  名 天坑(台) / 危楼深渊(港) / 水洞 / Sink hole
◎片  名 싱크홀
◎年  代 2021
◎产  地 韩国
◎类  别 剧情 / 灾难
◎语  言 韩语
◎上映日期 2021-08-11(韩国)
◎IMDb评分 6.1/10 (939人评价)
◎IMDb链接 https://www.imdb.com/title/tt12664618/
◎豆瓣评分 5.8/10 (8924人评价)
◎豆瓣链接 https://movie.douban.com/subject/33446375/
◎片  长 113分钟
◎导  演 金志勋 Ji-hun Kim
◎编  剧 全哲洪 Cheol-Hong Jeon
◎演  员 车胜元 Seung-won Cha
       金成均 Sung-Kyun Kim
       李光洙 Kwang-soo Lee
       南多凛 Dareum Nam
       高昌锡 Chang-Seok Ko
       金惠濬 Hye-joon Kim
       罗哲 Na Chul
◎标  签 灾难 / 韩国 / 喜剧 / 李光洙 / 韩国电影 / 2021 / 剧情 / 车胜元
◎简  介

  该片是一部讲述因一幢新建别墅掉进水洞而被困的人们的故事的灾难电影,由《华丽的休假》、《摩天楼》的导演金志勋执导。
  1. Video
  2. ID                                       : 1
  3. Format                                   : AVC
  4. Format/Info                              : Advanced Video Codec
  5. Format profile                           : [email protected]
  6. Format settings                          : CABAC / 4 Ref Frames
  7. Format settings, CABAC                   : Yes
  8. Format settings, Reference frames        : 4 frames
  9. Codec ID                                 : V_MPEG4/ISO/AVC
  10. Duration                                 : 1 h 53 min
  11. Bit rate                                 : 17.5 Mb/s
  12. Width                                    : 1 920 pixels
  13. Height                                   : 1 038 pixels
  14. Display aspect ratio                     : 1.85:1
  15. Frame rate mode                          : Constant
  16. Frame rate                               : 24.000 FPS
  17. Color space                              : YUV
  18. Chroma subsampling                       : 4:2:0
  19. Bit depth                                : 8 bits
  20. Scan type                                : Progressive
  21. Bits/(Pixel*Frame)                       : 0.365
  22. Stream size                              : 13.9 GiB (94%)
  23. Title                                    : Sinkhole (2021) | FRA Blu-ray | c0kE
  24. Writing library                          : x264 core 164 r3094+49M 0246926 devel [(8 & 10)[email protected] X86_64]
  25. Encoding settings                        : cabac=1 / ref=4 / deblock=1:-3:-3 / analyse=0x3:0x133 / me=umh / subme=10 / psy=1 / fade_compensate=0.00 / psy_rd=1.00:0.00 / mixed_ref=1 / me_range=32 / chroma_me=1 / trellis=2 / 8x8dct=1 / cqm=0 / deadzone=21,11 / fast_pskip=0 / chroma_qp_offset=-2 / threads=12 / lookahead_threads=2 / sliced_threads=0 / nr=0 / decimate=0 / interlaced=0 / bluray_compat=0 / constrained_intra=0 / fgo=0 / bframes=8 / b_pyramid=2 / b_adapt=2 / b_bias=0 / direct=3 / weightb=1 / open_gop=0 / weightp=2 / keyint=250 / keyint_min=24 / scenecut=40 / intra_refresh=0 / rc_lookahead=60 / rc=crf / mbtree=0 / crf=18.6000 / qcomp=0.60 / qpmin=0:0:0 / qpmax=69:69:69 / qpstep=4 / vbv_maxrate=62500 / vbv_bufsize=78125 / crf_max=0.0 / nal_hrd=none / filler=0 / ip_ratio=1.30 / pb_ratio=1.20 / aq=3:0.80 / aq-sensitivity=10.00 / aq-factor=1.00:1.00:1.00 / aq2=0 / aq3=0 / zones=158426,164039,crf=22
  26. Language                                 : Korean
  27. Default                                  : Yes
  28. Forced                                   : No
  29. Color range                              : Limited
  30. Color primaries                          : BT.709
  31. Matrix coefficients                      : BT.709
  32. Audio
  33. ID                                       : 2
  34. Format                                   : E-AC-3
  35. Format/Info                              : Enhanced AC-3
  36. Commercial name                          : Dolby Digital Plus
  37. Codec ID                                 : A_EAC3
  38. Duration                                 : 1 h 53 min
  39. Bit rate mode                            : Constant
  40. Bit rate                                 : 1 024 kb/s
  41. Channel(s)                               : 6 channels
  42. Channel layout                           : L R C LFE Ls Rs
  43. Sampling rate                            : 48.0 kHz
  44. Frame rate                               : 31.250 FPS (1536 SPF)
  45. Compression mode                         : Lossy
  46. Stream size                              : 834 MiB (6%)
  47. Language                                 : Korean
  48. Service kind                             : Complete Main
  49. Default                                  : Yes
  50. Forced                                   : No
  51. Text #1
  52. ID                                       : 3
  53. Format                                   : UTF-8
  54. Codec ID                                 : S_TEXT/UTF8
  55. Codec ID/Info                            : UTF-8 Plain Text
  56. Duration                                 : 1 h 52 min
  57. Bit rate                                 : 37 b/s
  58. Frame rate                               : 0.183 FPS
  59. Count of elements                        : 1238
  60. Stream size                              : 31.2 KiB (0%)
  61. Language                                 : English
  62. Default                                  : Yes
  63. Forced                                   : No
  64. Text #2
  65. ID                                       : 4
  66. Format                                   : UTF-8
  67. Codec ID                                 : S_TEXT/UTF8
  68. Codec ID/Info                            : UTF-8 Plain Text
  69. Duration                                 : 1 h 52 min
  70. Bit rate                                 : 115 b/s
  71. Frame rate                               : 0.330 FPS
  72. Count of elements                        : 2220
  73. Stream size                              : 95.0 KiB (0%)
  74. Title                                    : SDH
  75. Language                                 : Korean
  76. Default                                  : No
  77. Forced                                   : No
  78. Text #3
  79. ID                                       : 5
  80. Format                                   : UTF-8
  81. Codec ID                                 : S_TEXT/UTF8
  82. Codec ID/Info                            : UTF-8 Plain Text
  83. Duration                                 : 1 h 48 min
  84. Bit rate                                 : 43 b/s
  85. Frame rate                               : 0.251 FPS
  86. Count of elements                        : 1639
  87. Stream size                              : 34.5 KiB (0%)
  88. Title                                    : Traditional
  89. Language                                 : Chinese
  90. Default                                  : No
  91. Forced                                   : No
  92. Text #4
  93. ID                                       : 6
  94. Format                                   : UTF-8
  95. Codec ID                                 : S_TEXT/UTF8
  96. Codec ID/Info                            : UTF-8 Plain Text
  97. Duration                                 : 1 h 48 min
  98. Bit rate                                 : 43 b/s
  99. Frame rate                               : 0.251 FPS
  100. Count of elements                        : 1639
  101. Stream size                              : 34.5 KiB (0%)
  102. Title                                    : Simplified
  103. Language                                 : Chinese
  104. Default                                  : No
  105. Forced                                   : No
  106. Text #5
  107. ID                                       : 7
  108. Format                                   : UTF-8
  109. Codec ID                                 : S_TEXT/UTF8
  110. Codec ID/Info                            : UTF-8 Plain Text
  111. Duration                                 : 1 h 48 min
  112. Bit rate                                 : 61 b/s
  113. Frame rate                               : 0.249 FPS
  114. Count of elements                        : 1622
  115. Stream size                              : 49.0 KiB (0%)
  116. Language                                 : Vietnamese
  117. Default                                  : No
  118. Forced                                   : No
  119. Menu
  120. 00:00:00.000                             : en:Chapter 01
  121. 00:09:06.083                             : en:Chapter 02
  122. 00:16:48.208                             : en:Chapter 03
  123. 00:28:33.917                             : en:Chapter 04
  124. 00:36:27.000                             : en:Chapter 05
  125. 00:45:10.958                             : en:Chapter 06
  126. 00:53:38.333                             : en:Chapter 07
  127. 01:06:23.792                             : en:Chapter 08
  128. 01:17:46.458                             : en:Chapter 09
  129. 01:27:17.667                             : en:Chapter 10
  130. 01:38:14.167                             : en:Chapter 11
  131. 01:50:00.917                             : en:Chapter 12
复制代码




                                       
                                       

                                       
                                       
                                       




Sinkhole.2021.KOREAN.1080p.BluRay.x264.DDP5.1-c0kE.torrent (19.01 KB, 下载次数: 1)
回复

使用道具 举报

您需要登录后才可以回帖 登录 | 立即注册

本版积分规则

QQ|Archiver|手机版|小黑屋|蓝光电影网

GMT+8, 2022-12-1 22:50 , Processed in 0.052653 second(s), 28 queries .

Powered by Discuz! X3.4

Copyright © 2001-2020, Tencent Cloud.

快速回复 返回顶部 返回列表