找回密码
 立即注册

QQ登录

只需一步,快速开始

查看: 199|回复: 6

[动作片] 雷神4:爱与雷霆 Thor.Love.and.Thunder.2022.1080p.BluRay.REMUX.AVC.DTS-HD.MA.TrueHD.7.1.Atmos-FGT 36.95GB

[复制链接]

0

精华

0

好友

2

听众

新手上路

Rank: 2

蓝光币
5
发表于 2022-9-22 07:18:34 | 显示全部楼层 |阅读模式
[img][/img]

◎标  题 雷神4:爱与雷霆
◎译  名 雷神4 / 雷神奇侠4:爱与雷霆(港) / 雷神索尔:爱与雷霆(台)
◎片  名 Thor: Love and Thunder
◎年  代 2022
◎产  地 美国 / 澳大利亚
◎类  别 动作 / 奇幻 / 冒险
◎语  言 英语
◎上映日期 2022(中国大陆) / 2022-07-06(中国香港) / 2022-07-08(美国)
◎IMDb链接 https://www.imdb.com/title/tt10648342/
◎豆瓣链接 https://movie.douban.com/subject/34477861/
◎片  长 119分钟
◎导  演 塔伊加·维迪提 Taika Waititi
◎编  剧 塔伊加·维迪提 Taika Waititi
       詹尼弗·凯廷·罗宾逊 Jennifer Kaytin Robinson
       斯坦·李 Stan Lee
◎演  员 克里斯·海姆斯沃斯 Chris Hemsworth
       娜塔莉·波特曼 Natalie Portman
       克里斯蒂安·贝尔 Christian Bale
       泰莎·汤普森 Tessa Thompson
       塔伊加·维迪提 Taika Waititi
       罗素·克劳 Russell Crowe
       杰米·亚历山大 Jaimie Alexander
       克里斯·帕拉特 Chris Pratt
       戴夫·巴蒂斯塔 Dave Bautista
       凯伦·吉兰 Karen Gillan
       庞·克莱门捷夫 Pom Klementieff
       肖恩·古恩 Sean Gunn
       范·迪塞尔 Vin Diesel
       布莱德利·库珀 Bradley Cooper
       本·法尔科内 Ben Falcone
       史蒂芬·库里 Stephen Curry
       鲍比·霍兰德·汉顿 Bobby Holland Hanton
       戴利·皮尔森 Daley Pearson
       西蒙·拉塞尔·比尔 Simon Russell Beale
       乔尼·布鲁 Jonny Brugh
       布鲁克·斯塔奇威尔 Brooke Satchwell
       埃尔莎·帕塔奇 Elsa Pataky
       埃莉扎·德苏扎 Eliza D'Souza
       卡恩·古尔杜尔 Kaan Guldur
       普里西拉·道伊西 Priscilla Doueihy
       斯蒂芬·亨特 Stephen Hunter
       印第安娜·伊万斯 Indiana Evans
       艾娃·卡约菲丽斯 Ava Caryofyllis
       本·辛克莱尔 Ben Sinclair
       博特·高登斯汀 Brett Goldstein
       卢克·海姆斯沃斯 Luke Hemsworth
       马特·达蒙 Matt Damon
       梅丽莎·麦卡西 Melissa McCarthy
       山姆·尼尔 Sam Neill
       马克·卡西米尔·戴妮奇斯 Mark Casimir Dyniewicz
       凯文·费奇 Kevin Feige
       马克·马瑟斯鲍夫 Mark Mothersbaugh
       玛耶斯·C·鲁贝奥 Mayes C. Rubeo
◎简  介

  影片故事发在在《复仇者联盟4:终局之战》事件之后,雷神索尔(克里斯·海姆斯沃斯 饰)踏上了一段他从未经历过的旅程:找回自我。但索尔的退休计划却被企图消灭众神的屠神者格尔(克里斯蒂安·贝尔 饰)打断,他只好与女武神瓦尔基里(泰莎·汤普森 饰)和寇格(塔伊加·维迪提 饰)再次联手,其间更发现自己八年未见的前女友简·福斯特(娜塔莉·波特曼 饰)获得了雷神之力、挥舞着多年前在自己面前毁灭的雷神之锤,令索尔惊讶不已。他们一起踏上了星际冒险,以揭开格尔的复仇之谜,并在为时已晚之前阻止他。
  1. Video
  2. ID                                       : 1
  3. ID in the original source medium         : 4113 (0x1011)
  4. Format                                   : AVC
  5. Format/Info                              : Advanced Video Codec
  6. Format profile                           : [email protected]
  7. Format settings                          : CABAC / 4 Ref Frames
  8. Format settings, CABAC                   : Yes
  9. Format settings, Reference frames        : 4 frames
  10. Format settings, GOP                     : M=3, N=12
  11. Codec ID                                 : V_MPEG4/ISO/AVC
  12. Duration                                 : 1 h 58 min
  13. Bit rate mode                            : Variable
  14. Bit rate                                 : 31.8 Mb/s
  15. Maximum bit rate                         : 35.2 Mb/s
  16. Width                                    : 1 920 pixels
  17. Height                                   : 1 080 pixels
  18. Display aspect ratio                     : 16:9
  19. Frame rate mode                          : Constant
  20. Frame rate                               : 23.976 (24000/1001/189150) FPS
  21. Color space                              : YUV
  22. Chroma subsampling                       : 4:2:0
  23. Bit depth                                : 8 bits
  24. Scan type                                : Progressive
  25. Bits/(Pixel*Frame)                       : 0.639
  26. Stream size                              : 26.4 GiB (71%)
  27. Language                                 : English
  28. Default                                  : No
  29. Forced                                   : No
  30. Original source medium                   : Blu-ray
  31. Audio #1
  32. ID                                       : 2
  33. ID in the original source medium         : 4352 (0x1100)
  34. Format                                   : MLP FBA 16-ch
  35. Format/Info                              : Meridian Lossless Packing FBA with 16-channel presentation
  36. Commercial name                          : Dolby TrueHD with Dolby Atmos
  37. Codec ID                                 : A_TRUEHD
  38. Duration                                 : 1 h 58 min
  39. Bit rate mode                            : Variable
  40. Bit rate                                 : 4 691 kb/s
  41. Maximum bit rate                         : 8 409 kb/s
  42. Channel(s)                               : 8 channels
  43. Channel layout                           : L R C LFE Ls Rs Lb Rb
  44. Sampling rate                            : 48.0 kHz
  45. Frame rate                               : 1 200.000 FPS (40 SPF)
  46. Bit depth                                : 24 bits
  47. Compression mode                         : Lossless
  48. Stream size                              : 3.89 GiB (11%)
  49. Title                                    : TrueHD 7.1 Atmos
  50. Language                                 : English
  51. Default                                  : Yes
  52. Forced                                   : No
  53. Original source medium                   : Blu-ray
  54. Number of dynamic objects                : 13
  55. Bed channel count                        : 1 channel
  56. Bed channel configuration                : LFE
  57. Audio #2
  58. ID                                       : 3
  59. ID in the original source medium         : 4352 (0x1100)
  60. Format                                   : DTS XLL
  61. Format/Info                              : Digital Theater Systems
  62. Commercial name                          : DTS-HD Master Audio
  63. Codec ID                                 : A_DTS
  64. Duration                                 : 1 h 58 min
  65. Bit rate mode                            : Variable
  66. Bit rate                                 : 4 873 kb/s
  67. Channel(s)                               : 8 channels
  68. Channel layout                           : C L R LFE Lb Rb Lss Rss
  69. Sampling rate                            : 48.0 kHz
  70. Frame rate                               : 93.750 FPS (512 SPF)
  71. Bit depth                                : 24 bits
  72. Compression mode                         : Lossless
  73. Stream size                              : 4.04 GiB (11%)
  74. Title                                    : DTS-HD MA 7.1
  75. Language                                 : English
  76. Default                                  : No
  77. Forced                                   : No
  78. Original source medium                   : Blu-ray
  79. Audio #3
  80. ID                                       : 4
  81. ID in the original source medium         : 4352 (0x1100)
  82. Format                                   : AC-3
  83. Format/Info                              : Audio Coding 3
  84. Commercial name                          : Dolby Digital
  85. Codec ID                                 : A_AC3
  86. Duration                                 : 1 h 58 min
  87. Bit rate mode                            : Constant
  88. Bit rate                                 : 640 kb/s
  89. Channel(s)                               : 6 channels
  90. Channel layout                           : L R C LFE Ls Rs
  91. Sampling rate                            : 48.0 kHz
  92. Frame rate                               : 31.250 FPS (1536 SPF)
  93. Compression mode                         : Lossy
  94. Stream size                              : 544 MiB (1%)
  95. Title                                    : DD 5.1
  96. Language                                 : English
  97. Service kind                             : Complete Main
  98. Default                                  : No
  99. Forced                                   : No
  100. Original source medium                   : Blu-ray
  101. Audio #4
  102. ID                                       : 5
  103. ID in the original source medium         : 4353 (0x1101)
  104. Format                                   : AC-3
  105. Format/Info                              : Audio Coding 3
  106. Commercial name                          : Dolby Digital
  107. Codec ID                                 : A_AC3
  108. Duration                                 : 1 h 58 min
  109. Bit rate mode                            : Constant
  110. Bit rate                                 : 320 kb/s
  111. Channel(s)                               : 2 channels
  112. Channel layout                           : L R
  113. Sampling rate                            : 48.0 kHz
  114. Frame rate                               : 31.250 FPS (1536 SPF)
  115. Compression mode                         : Lossy
  116. Stream size                              : 272 MiB (1%)
  117. Title                                    : DD 2.0
  118. Language                                 : English
  119. Service kind                             : Complete Main
  120. Default                                  : No
  121. Forced                                   : No
  122. Original source medium                   : Blu-ray
  123. Audio #5
  124. ID                                       : 6
  125. Format                                   : E-AC-3
  126. Format/Info                              : Enhanced AC-3
  127. Commercial name                          : Dolby Digital Plus
  128. Format profile                           : Blu-ray Disc
  129. Codec ID                                 : A_EAC3
  130. Duration                                 : 1 h 58 min
  131. Bit rate mode                            : Constant
  132. Bit rate                                 : 896 kb/s
  133. Channel(s)                               : 8 channels
  134. Channel layout                           : L R C LFE Ls Rs Lb Rb
  135. Sampling rate                            : 48.0 kHz
  136. Frame rate                               : 31.250 FPS (1536 SPF)
  137. Compression mode                         : Lossy
  138. Stream size                              : 761 MiB (2%)
  139. Title                                    : DDP 7.1
  140. Language                                 : French
  141. Service kind                             : Complete Main
  142. Default                                  : No
  143. Forced                                   : No
  144. Audio #6
  145. ID                                       : 7
  146. Format                                   : E-AC-3
  147. Format/Info                              : Enhanced AC-3
  148. Commercial name                          : Dolby Digital Plus
  149. Format profile                           : Blu-ray Disc
  150. Codec ID                                 : A_EAC3
  151. Duration                                 : 1 h 58 min
  152. Bit rate mode                            : Constant
  153. Bit rate                                 : 896 kb/s
  154. Channel(s)                               : 8 channels
  155. Channel layout                           : L R C LFE Ls Rs Lb Rb
  156. Sampling rate                            : 48.0 kHz
  157. Frame rate                               : 31.250 FPS (1536 SPF)
  158. Compression mode                         : Lossy
  159. Stream size                              : 761 MiB (2%)
  160. Title                                    : DDP 7.1
  161. Language                                 : German
  162. Service kind                             : Complete Main
  163. Default                                  : No
  164. Forced                                   : No
  165. Audio #7
  166. ID                                       : 8
  167. ID in the original source medium         : 4356 (0x1104)
  168. Format                                   : AC-3
  169. Format/Info                              : Audio Coding 3
  170. Commercial name                          : Dolby Digital
  171. Codec ID                                 : A_AC3
  172. Duration                                 : 1 h 58 min
  173. Bit rate mode                            : Constant
  174. Bit rate                                 : 192 kb/s
  175. Channel(s)                               : 2 channels
  176. Channel layout                           : L R
  177. Sampling rate                            : 48.0 kHz
  178. Frame rate                               : 31.250 FPS (1536 SPF)
  179. Compression mode                         : Lossy
  180. Stream size                              : 163 MiB (0%)
  181. Title                                    : DD 2.0
  182. Language                                 : English
  183. Service kind                             : Complete Main
  184. Default                                  : No
  185. Forced                                   : No
  186. Original source medium                   : Blu-ray
  187. Text #1
  188. ID                                       : 9
  189. Format                                   : UTF-8
  190. Codec ID                                 : S_TEXT/UTF8
  191. Codec ID/Info                            : UTF-8 Plain Text
  192. Duration                                 : 1 h 57 min
  193. Bit rate                                 : 56 b/s
  194. Frame rate                               : 0.252 FPS
  195. Count of elements                        : 1782
  196. Stream size                              : 48.8 KiB (0%)
  197. Language                                 : English
  198. Default                                  : Yes
  199. Forced                                   : No
  200. Text #2
  201. ID                                       : 10
  202. Format                                   : UTF-8
  203. Codec ID                                 : S_TEXT/UTF8
  204. Codec ID/Info                            : UTF-8 Plain Text
  205. Duration                                 : 1 h 58 min
  206. Bit rate                                 : 69 b/s
  207. Frame rate                               : 0.319 FPS
  208. Count of elements                        : 2262
  209. Stream size                              : 60.2 KiB (0%)
  210. Title                                    : SDH
  211. Language                                 : English
  212. Default                                  : No
  213. Forced                                   : No
  214. Text #3
  215. ID                                       : 11
  216. ID in the original source medium         : 4608 (0x1200)
  217. Format                                   : PGS
  218. Muxing mode                              : zlib
  219. Codec ID                                 : S_HDMV/PGS
  220. Codec ID/Info                            : Picture based subtitle format used on BDs/HD-DVDs
  221. Duration                                 : 1 h 58 min
  222. Bit rate                                 : 52.5 kb/s
  223. Frame rate                               : 0.641 FPS
  224. Count of elements                        : 4548
  225. Stream size                              : 44.4 MiB (0%)
  226. Language                                 : English
  227. Default                                  : No
  228. Forced                                   : No
  229. Original source medium                   : Blu-ray
  230. Text #4
  231. ID                                       : 12
  232. ID in the original source medium         : 4609 (0x1201)
  233. Format                                   : PGS
  234. Muxing mode                              : zlib
  235. Codec ID                                 : S_HDMV/PGS
  236. Codec ID/Info                            : Picture based subtitle format used on BDs/HD-DVDs
  237. Duration                                 : 1 h 57 min
  238. Bit rate                                 : 30.5 kb/s
  239. Frame rate                               : 0.425 FPS
  240. Count of elements                        : 3006
  241. Stream size                              : 25.7 MiB (0%)
  242. Language                                 : French
  243. Default                                  : No
  244. Forced                                   : No
  245. Original source medium                   : Blu-ray
  246. Text #5
  247. ID                                       : 13
  248. ID in the original source medium         : 4610 (0x1202)
  249. Format                                   : PGS
  250. Muxing mode                              : zlib
  251. Codec ID                                 : S_HDMV/PGS
  252. Codec ID/Info                            : Picture based subtitle format used on BDs/HD-DVDs
  253. Duration                                 : 1 h 57 min
  254. Bit rate                                 : 33.6 kb/s
  255. Frame rate                               : 0.416 FPS
  256. Count of elements                        : 2940
  257. Stream size                              : 28.3 MiB (0%)
  258. Language                                 : German
  259. Default                                  : No
  260. Forced                                   : No
  261. Original source medium                   : Blu-ray
  262. Text #6
  263. ID                                       : 14
  264. ID in the original source medium         : 4611 (0x1203)
  265. Format                                   : PGS
  266. Muxing mode                              : zlib
  267. Codec ID                                 : S_HDMV/PGS
  268. Codec ID/Info                            : Picture based subtitle format used on BDs/HD-DVDs
  269. Duration                                 : 1 h 57 min
  270. Bit rate                                 : 34.7 kb/s
  271. Frame rate                               : 0.393 FPS
  272. Count of elements                        : 2776
  273. Stream size                              : 29.3 MiB (0%)
  274. Language                                 : Dutch
  275. Default                                  : No
  276. Forced                                   : No
  277. Original source medium                   : Blu-ray
  278. Text #7
  279. ID                                       : 15
  280. ID in the original source medium         : 4612 (0x1204)
  281. Format                                   : PGS
  282. Muxing mode                              : zlib
  283. Codec ID                                 : S_HDMV/PGS
  284. Codec ID/Info                            : Picture based subtitle format used on BDs/HD-DVDs
  285. Duration                                 : 1 h 57 min
  286. Bit rate                                 : 29.9 kb/s
  287. Frame rate                               : 0.280 FPS
  288. Count of elements                        : 1982
  289. Stream size                              : 25.2 MiB (0%)
  290. Language                                 : Danish
  291. Default                                  : No
  292. Forced                                   : No
  293. Original source medium                   : Blu-ray
  294. Text #8
  295. ID                                       : 16
  296. ID in the original source medium         : 4613 (0x1205)
  297. Format                                   : PGS
  298. Muxing mode                              : zlib
  299. Codec ID                                 : S_HDMV/PGS
  300. Codec ID/Info                            : Picture based subtitle format used on BDs/HD-DVDs
  301. Duration                                 : 1 h 57 min
  302. Bit rate                                 : 38.5 kb/s
  303. Frame rate                               : 0.454 FPS
  304. Count of elements                        : 3212
  305. Stream size                              : 32.5 MiB (0%)
  306. Language                                 : Finnish
  307. Default                                  : No
  308. Forced                                   : No
  309. Original source medium                   : Blu-ray
  310. Text #9
  311. ID                                       : 17
  312. ID in the original source medium         : 4614 (0x1206)
  313. Format                                   : PGS
  314. Muxing mode                              : zlib
  315. Codec ID                                 : S_HDMV/PGS
  316. Codec ID/Info                            : Picture based subtitle format used on BDs/HD-DVDs
  317. Duration                                 : 1 h 57 min
  318. Bit rate                                 : 32.9 kb/s
  319. Frame rate                               : 0.456 FPS
  320. Count of elements                        : 3224
  321. Stream size                              : 27.7 MiB (0%)
  322. Language                                 : Norwegian
  323. Default                                  : No
  324. Forced                                   : No
  325. Original source medium                   : Blu-ray
  326. Text #10
  327. ID                                       : 18
  328. ID in the original source medium         : 4615 (0x1207)
  329. Format                                   : PGS
  330. Muxing mode                              : zlib
  331. Codec ID                                 : S_HDMV/PGS
  332. Codec ID/Info                            : Picture based subtitle format used on BDs/HD-DVDs
  333. Duration                                 : 1 h 57 min
  334. Bit rate                                 : 31.7 kb/s
  335. Frame rate                               : 0.331 FPS
  336. Count of elements                        : 2338
  337. Stream size                              : 26.7 MiB (0%)
  338. Language                                 : Swedish
  339. Default                                  : No
  340. Forced                                   : No
  341. Original source medium                   : Blu-ray
  342. Text #11
  343. ID                                       : 19
  344. ID in the original source medium         : 4616 (0x1208)
  345. Format                                   : PGS
  346. Muxing mode                              : zlib
  347. Codec ID                                 : S_HDMV/PGS
  348. Codec ID/Info                            : Picture based subtitle format used on BDs/HD-DVDs
  349. Duration                                 : 1 h 58 min
  350. Bit rate                                 : 67.9 kb/s
  351. Frame rate                               : 0.628 FPS
  352. Count of elements                        : 4454
  353. Stream size                              : 57.4 MiB (0%)
  354. Title                                    : COMMENTARY
  355. Language                                 : English
  356. Default                                  : No
  357. Forced                                   : No
  358. Original source medium                   : Blu-ray
  359. Text #12
  360. ID                                       : 20
  361. ID in the original source medium         : 4617 (0x1209)
  362. Format                                   : PGS
  363. Muxing mode                              : zlib
  364. Codec ID                                 : S_HDMV/PGS
  365. Codec ID/Info                            : Picture based subtitle format used on BDs/HD-DVDs
  366. Duration                                 : 1 h 58 min
  367. Bit rate                                 : 49.3 kb/s
  368. Frame rate                               : 0.554 FPS
  369. Count of elements                        : 3934
  370. Stream size                              : 41.7 MiB (0%)
  371. Title                                    : COMMENTARY
  372. Language                                 : French
  373. Default                                  : No
  374. Forced                                   : No
  375. Original source medium                   : Blu-ray
  376. Text #13
  377. ID                                       : 21
  378. ID in the original source medium         : 4618 (0x120A)
  379. Format                                   : PGS
  380. Muxing mode                              : zlib
  381. Codec ID                                 : S_HDMV/PGS
  382. Codec ID/Info                            : Picture based subtitle format used on BDs/HD-DVDs
  383. Duration                                 : 1 h 58 min
  384. Bit rate                                 : 52.7 kb/s
  385. Frame rate                               : 0.524 FPS
  386. Count of elements                        : 3720
  387. Stream size                              : 44.6 MiB (0%)
  388. Title                                    : COMMENTARY
  389. Language                                 : German
  390. Default                                  : No
  391. Forced                                   : No
  392. Original source medium                   : Blu-ray
  393. Text #14
  394. ID                                       : 22
  395. ID in the original source medium         : 4619 (0x120B)
  396. Format                                   : PGS
  397. Muxing mode                              : zlib
  398. Codec ID                                 : S_HDMV/PGS
  399. Codec ID/Info                            : Picture based subtitle format used on BDs/HD-DVDs
  400. Duration                                 : 1 h 58 min
  401. Bit rate                                 : 49.8 kb/s
  402. Frame rate                               : 0.521 FPS
  403. Count of elements                        : 3694
  404. Stream size                              : 42.1 MiB (0%)
  405. Title                                    : COMMENTARY
  406. Language                                 : Dutch
  407. Default                                  : No
  408. Forced                                   : No
  409. Original source medium                   : Blu-ray
  410. Text #15
  411. ID                                       : 23
  412. ID in the original source medium         : 4620 (0x120C)
  413. Format                                   : PGS
  414. Muxing mode                              : zlib
  415. Codec ID                                 : S_HDMV/PGS
  416. Codec ID/Info                            : Picture based subtitle format used on BDs/HD-DVDs
  417. Duration                                 : 1 h 43 min
  418. Bit rate                                 : 127 b/s
  419. Frame rate                               : 0.002 FPS
  420. Count of elements                        : 12
  421. Stream size                              : 97.4 KiB (0%)
  422. Title                                    : FORCED
  423. Language                                 : French
  424. Default                                  : No
  425. Forced                                   : No
  426. Original source medium                   : Blu-ray
  427. Text #16
  428. ID                                       : 24
  429. ID in the original source medium         : 4621 (0x120D)
  430. Format                                   : PGS
  431. Muxing mode                              : zlib
  432. Codec ID                                 : S_HDMV/PGS
  433. Codec ID/Info                            : Picture based subtitle format used on BDs/HD-DVDs
  434. Duration                                 : 3 s 566 ms
  435. Bit rate                                 : 38.9 kb/s
  436. Frame rate                               : 0.561 FPS
  437. Count of elements                        : 2
  438. Stream size                              : 16.9 KiB (0%)
  439. Title                                    : FORCED
  440. Language                                 : German
  441. Default                                  : No
  442. Forced                                   : No
  443. Original source medium                   : Blu-ray
  444. Menu
  445. 00:00:00.000                             : en:Chapter 01
  446. 00:06:45.488                             : en:Chapter 02
  447. 00:10:11.319                             : en:Chapter 03
  448. 00:14:24.113                             : en:Chapter 04
  449. 00:18:13.425                             : en:Chapter 05
  450. 00:20:59.508                             : en:Chapter 06
  451. 00:21:48.015                             : en:Chapter 07
  452. 00:27:00.994                             : en:Chapter 08
  453. 00:28:16.194                             : en:Chapter 09
  454. 00:29:52.248                             : en:Chapter 10
  455. 00:31:24.507                             : en:Chapter 11
  456. 00:35:15.113                             : en:Chapter 12
  457. 00:38:40.443                             : en:Chapter 13
  458. 00:45:37.443                             : en:Chapter 14
  459. 00:53:04.222                             : en:Chapter 15
  460. 01:06:19.892                             : en:Chapter 16
  461. 01:14:16.910                             : en:Chapter 17
  462. 01:24:35.820                             : en:Chapter 18
  463. 01:28:31.180                             : en:Chapter 19
  464. 01:30:20.331                             : en:Chapter 20
  465. 01:34:17.652                             : en:Chapter 21
  466. 01:38:12.678                             : en:Chapter 22
  467. 01:44:45.237                             : en:Chapter 23
  468. 01:48:17.449                             : en:Chapter 24
  469. 01:50:03.805                             : en:Chapter 25
  470. 01:51:14.542                             : en:Chapter 26
复制代码




                                       
                                       

                                       
                                       
                                       




Thor.Love.and.Thunder.2022.1080p.BluRay.REMUX.AVC.DTS-HD.MA.TrueHD.7.1.Atmos-FGT.torrent (46.87 KB, 下载次数: 113)
回复

使用道具 举报

 成长值: 6160

0

精华

0

好友

5

听众

尊贵用户

Rank: 1

蓝光币
0
发表于 2022-9-22 08:43:25 | 显示全部楼层
种子不对 请管理员核查
回复

使用道具 举报

0

精华

0

好友

2

听众

新手上路

Rank: 1

蓝光币
0
发表于 2022-9-30 00:40:18 | 显示全部楼层
haohaohaohao
回复

使用道具 举报

0

精华

0

好友

2

听众

新手上路

Rank: 1

蓝光币
0
发表于 2022-9-30 00:40:42 | 显示全部楼层
haoajaoahsjk
回复

使用道具 举报

0

精华

0

好友

5

听众

新手上路

Rank: 1

蓝光币
0
发表于 2022-9-30 07:20:22 | 显示全部楼层
开通VIP免费下载本站所有资源
回复

使用道具 举报

0

精华

0

好友

5

听众

新手上路

Rank: 1

蓝光币
0
发表于 2022-10-10 22:46:40 | 显示全部楼层
很快很好,支持发布。谢谢
回复

使用道具 举报

0

精华

0

好友

2

听众

新手上路

Rank: 1

蓝光币
36
发表于 2022-11-8 22:45:40 | 显示全部楼层
怎么好像弄不了的
回复

使用道具 举报

您需要登录后才可以回帖 登录 | 立即注册

本版积分规则

QQ|Archiver|手机版|小黑屋|蓝光电影网

GMT+8, 2022-11-30 12:40 , Processed in 0.060650 second(s), 28 queries .

Powered by Discuz! X3.4

Copyright © 2001-2020, Tencent Cloud.

快速回复 返回顶部 返回列表