找回密码
 立即注册

QQ登录

只需一步,快速开始

查看: 81|回复: 0

[惊悚片] 暗礁狂鲨 The.Reef.Stalked.2022.1080p.BluRay.x264.DTS-MT 8.63GB

[复制链接]

0

精华

0

好友

2

听众

新手上路

Rank: 2

蓝光币
5
发表于 2022-9-21 07:08:52 | 显示全部楼层 |阅读模式
[img][/img]

◎标  题 暗礁狂鲨
◎片  名 The Reef: Stalked
◎年  代 2021
◎产  地 澳大利亚
◎类  别 惊悚
◎语  言 英语
◎IMDb评分 5.3/10 (376人评价)
◎IMDb链接 https://www.imdb.com/title/tt12735282/
◎豆瓣链接 https://movie.douban.com/subject/35624810/
◎导  演 安德鲁·陶克吉 Andrew Traucki
◎编  剧 安德鲁·陶克吉 Andrew Traucki
◎演  员 特瑞沙莲 teressa liane
       Kate Lister Kate Lister
◎简  介

  After her sister's murder, Nic, her younger sister and two friends seek solace through a Pacific island kayaking adventure. Hours into the trip the women are stalked by a shark and must band together, face their fears and save each other.
  1. Video
  2. ID                                       : 1
  3. Format                                   : AVC
  4. Format/Info                              : Advanced Video Codec
  5. Format profile                           : [email protected]
  6. Format settings                          : CABAC / 5 Ref Frames
  7. Format settings, CABAC                   : Yes
  8. Format settings, Reference frames        : 5 frames
  9. Codec ID                                 : V_MPEG4/ISO/AVC
  10. Duration                                 : 1 h 32 min
  11. Bit rate                                 : 11.8 Mb/s
  12. Width                                    : 1 920 pixels
  13. Height                                   : 806 pixels
  14. Display aspect ratio                     : 2.40:1
  15. Frame rate mode                          : Constant
  16. Frame rate                               : 23.976 (24000/1001/189150) FPS
  17. Color space                              : YUV
  18. Chroma subsampling                       : 4:2:0
  19. Bit depth                                : 8 bits
  20. Scan type                                : Progressive
  21. Bits/(Pixel*Frame)                       : 0.319
  22. Stream size                              : 7.65 GiB (89%)
  23. Writing library                          : x264 core 157 r2938 2b00a84 [email protected] Mod
  24. Encoding settings                        : cabac=1 / ref=5 / deblock=1:-3:-3 / analyse=0x3:0x133 / me=umh / subme=10 / psy=1 / psy_rd=1.05:0.00 / mixed_ref=1 / me_range=32 / chroma_me=1 / trellis=2 / 8x8dct=1 / cqm=0 / deadzone=21,11 / fast_pskip=0 / chroma_qp_offset=-2 / threads=12 / lookahead_threads=2 / sliced_threads=0 / nr=0 / decimate=0 / interlaced=0 / bluray_compat=0 / constrained_intra=0 / bframes=8 / b_pyramid=2 / b_adapt=2 / b_bias=0 / direct=3 / weightb=1 / open_gop=0 / weightp=2 / keyint=250 / keyint_min=24 / scenecut=40 / intra_refresh=0 / rc_lookahead=250 / rc=crf / mbtree=0 / crf=16.8 / qcomp=0.60 / qpmin=0 / qpmax=69 / qpstep=4 / vbv_maxrate=62500 / vbv_bufsize=78125 / crf_max=0.0 / nal_hrd=none / filler=0 / ip_ratio=1.30 / pb_ratio=1.20 / aq=3:0.80
  25. Language                                 : English
  26. Default                                  : Yes
  27. Forced                                   : No
  28. Color range                              : Limited
  29. Color primaries                          : BT.709
  30. Matrix coefficients                      : BT.709
  31. Audio
  32. ID                                       : 2
  33. Format                                   : DTS
  34. Format/Info                              : Digital Theater Systems
  35. Codec ID                                 : A_DTS
  36. Duration                                 : 1 h 32 min
  37. Bit rate mode                            : Constant
  38. Bit rate                                 : 1 509 kb/s
  39. Channel(s)                               : 6 channels
  40. Channel layout                           : C L R Ls Rs LFE
  41. Sampling rate                            : 48.0 kHz
  42. Frame rate                               : 93.750 FPS (512 SPF)
  43. Bit depth                                : 24 bits
  44. Compression mode                         : Lossy
  45. Stream size                              : 998 MiB (11%)
  46. Language                                 : English
  47. Default                                  : Yes
  48. Forced                                   : No
  49. Text #1
  50. ID                                       : 3
  51. Format                                   : UTF-8
  52. Codec ID                                 : S_TEXT/UTF8
  53. Codec ID/Info                            : UTF-8 Plain Text
  54. Duration                                 : 1 h 25 min
  55. Bit rate                                 : 26 b/s
  56. Frame rate                               : 0.146 FPS
  57. Count of elements                        : 745
  58. Stream size                              : 16.7 KiB (0%)
  59. Language                                 : English
  60. Default                                  : Yes
  61. Forced                                   : No
  62. Text #2
  63. ID                                       : 4
  64. Format                                   : UTF-8
  65. Codec ID                                 : S_TEXT/UTF8
  66. Codec ID/Info                            : UTF-8 Plain Text
  67. Duration                                 : 1 h 27 min
  68. Bit rate                                 : 40 b/s
  69. Frame rate                               : 0.227 FPS
  70. Count of elements                        : 1183
  71. Stream size                              : 25.7 KiB (0%)
  72. Title                                    : SDH
  73. Language                                 : English
  74. Default                                  : No
  75. Forced                                   : No
  76. Menu
  77. 00:00:00.000                             : en:Chapter 01
  78. 00:12:17.445                             : en:Chapter 02
  79. 00:26:41.266                             : en:Chapter 03
  80. 00:38:12.248                             : en:Chapter 04
  81. 00:51:06.272                             : en:Chapter 05
  82. 01:00:14.152                             : en:Chapter 06
  83. 01:15:12.925                             : en:Chapter 07
  84. 01:27:01.716                             : en:Chapter 08
复制代码




                                       
                                       

                                       
                                       
                                       




The.Reef.Stalked.2022.1080p.BluRay.x264.DTS-MT.torrent (22.19 KB, 下载次数: 0)
回复

使用道具 举报

您需要登录后才可以回帖 登录 | 立即注册

本版积分规则

QQ|Archiver|手机版|小黑屋|蓝光电影网

GMT+8, 2022-12-1 21:29 , Processed in 0.051597 second(s), 28 queries .

Powered by Discuz! X3.4

Copyright © 2001-2020, Tencent Cloud.

快速回复 返回顶部 返回列表