找回密码
 立即注册

QQ登录

只需一步,快速开始

查看: 137|回复: 0

[其他] 菲利普船长 Captain.Phillips.2013.2160p.WEB-DL.x265.10bit.SDR.DTS-HD.MA.5.1-SMURF 25.62GB

[复制链接]

0

精华

0

好友

2

听众

新手上路

Rank: 2

蓝光币
5
发表于 2022-9-20 07:51:05 | 显示全部楼层 |阅读模式
[img][/img]

◎标  题 菲利普船长
◎译  名 盗海狙击(港) / 怒海劫(台) / 怒海求生(港) / 菲利普斯船长
◎片  名 Captain Phillips
◎年  代 2013
◎产  地 美国
◎类  别 剧情 / 惊悚 / 传记
◎语  言 英语 / 索马里语
◎上映日期 2013-09-27(纽约电影节) / 2013-10-11(美国)
◎IMDb评分 7.8/10 (441521人评价)
◎IMDb链接 https://www.imdb.com/title/tt1535109/
◎豆瓣评分 8.2/10 (99836人评价)
◎豆瓣链接 https://movie.douban.com/subject/4116480/
◎片  长 134分钟
◎导  演 保罗·格林格拉斯 Paul Greengrass
◎编  剧 比利·雷 Billy Ray
       理查德·菲利普 Richard Phillips
       斯蒂芬·泰尔利 Stephan Talty
       比利·雷 Billy Ray
◎演  员 汤姆·汉克斯 Tom Hanks
       巴克德·阿巴蒂 Barkhad Abdi
       巴哈德·阿布迪 Barkhad Abdirahman
       法塞尔·阿迈德 Faysal Ahmed
       马哈特·M·阿里 Mahat M. Ali
       迈克尔·切鲁斯 Michael Chernus
       克里·约翰逊 Corey Johnson
       马克斯·马蒂尼 Max Martini
       克里斯·马尔基 Chris Mulkey
       尤尔·瓦斯克斯 Yul Vazquez
       大卫·沃肖夫斯基 David Warshofsky
       凯瑟琳·基纳 Catherine Keener
       玛丽亚·迪齐亚 Maria Dizzia
       奥马尔·贝尔杜尼 Omar Berdouni
       安格斯·麦金尼斯 Angus MacInnes
       克里斯托弗·斯塔杜利斯 Christopher Stadulis
       迪·泰尔斯 Dee Tails
       伊恩拉尔夫 Ian Ralph
       凯文·史派西 Kevin Spacey
       迈克·德·鲁卡 Michael De Luca
       伊莱·布什 Eli Bush
       亨利·杰克曼 Henry Jackman
       巴里·埃克劳德 Barry Ackroyd
       马克·布里奇斯 Mark Bridges
       克里斯·伯顿 Chris Burdon
◎标  签 美国 / 剧情 / 海盗 / 传记 / 犯罪 / 人性 / 2013 / 汤姆汉克斯
◎简  介

  2009年,美国货轮“马士基·阿拉巴马”号在船长理查德·菲利普(汤姆·汉克斯 Tom Hanks 饰)的带领下执行在非洲角区域的货物运输任务。该次任务的航线途径海盗猖獗的索马里地区海域。虽然菲利普船长和船员都进行过抗击海盗的训练和演习,但是他们完全没有料到在启程不久就遭遇了四名索马里海盗的登船袭击。菲利普船长在保护船员和货物的搏斗中不幸被海盗劫为人质并带离货船。美国海军等部门接到情报后立即展开大规模营救菲利普船长的行动。                                    
                                本片根据真实事件改编。这是近200年以来美国船只首次遭到海盗的劫持。
  1. Video
  2. ID                                       : 1
  3. Format                                   : HEVC
  4. Format/Info                              : High Efficiency Video Coding
  5. Format profile                           : Main [email protected]@High
  6. Codec ID                                 : V_MPEGH/ISO/HEVC
  7. Duration                                 : 2 h 14 min
  8. Bit rate                                 : 24.0 Mb/s
  9. Width                                    : 3 840 pixels
  10. Height                                   : 2 160 pixels
  11. Display aspect ratio                     : 16:9
  12. Frame rate mode                          : Constant
  13. Frame rate                               : 23.976 (24000/1001/189150) FPS
  14. Color space                              : YUV
  15. Chroma subsampling                       : 4:2:0 (Type 2)
  16. Bit depth                                : 10 bits
  17. Bits/(Pixel*Frame)                       : 0.121
  18. Stream size                              : 22.5 GiB (88%)
  19. Language                                 : English
  20. Default                                  : Yes
  21. Forced                                   : No
  22. Color range                              : Limited
  23. Color primaries                          : BT.709
  24. Transfer characteristics                 : BT.709
  25. Matrix coefficients                      : BT.709

  26. Audio #1
  27. ID                                       : 2
  28. ID in the original source medium         : 4352 (0x1100)
  29. Format                                   : DTS XLL
  30. Format/Info                              : Digital Theater Systems
  31. Commercial name                          : DTS-HD Master Audio
  32. Codec ID                                 : A_DTS
  33. Duration                                 : 2 h 14 min
  34. Bit rate mode                            : Variable
  35. Bit rate                                 : 2 779 kb/s
  36. Channel(s)                               : 6 channels
  37. Channel layout                           : C L R Ls Rs LFE
  38. Sampling rate                            : 48.0 kHz
  39. Frame rate                               : 93.750 FPS (512 SPF)
  40. Bit depth                                : 24 bits
  41. Compression mode                         : Lossless
  42. Stream size                              : 2.60 GiB (10%)
  43. Title                                    : DTS-HD Master Audio / 5.1 / 48 kHz /  2779 kbps / 24-bit
  44. Language                                 : English
  45. Default                                  : Yes
  46. Forced                                   : No
  47. Original source medium                   : Blu-ray

  48. Audio #2
  49. ID                                       : 3
  50. Format                                   : AC-3
  51. Format/Info                              : Audio Coding 3
  52. Commercial name                          : Dolby Digital
  53. Codec ID                                 : A_AC3
  54. Duration                                 : 2 h 14 min
  55. Bit rate mode                            : Constant
  56. Bit rate                                 : 384 kb/s
  57. Channel(s)                               : 6 channels
  58. Channel layout                           : L R C LFE Ls Rs
  59. Sampling rate                            : 48.0 kHz
  60. Frame rate                               : 31.250 FPS (1536 SPF)
  61. Compression mode                         : Lossy
  62. Stream size                              : 368 MiB (1%)
  63. Title                                    : Compatibilty
  64. Language                                 : English
  65. Service kind                             : Complete Main
  66. Default                                  : No
  67. Forced                                   : No

  68. Audio #3
  69. ID                                       : 4
  70. ID in the original source medium         : 4356 (0x1104)
  71. Format                                   : AC-3
  72. Format/Info                              : Audio Coding 3
  73. Commercial name                          : Dolby Digital
  74. Format settings                          : Dolby Surround
  75. Codec ID                                 : A_AC3
  76. Duration                                 : 2 h 14 min
  77. Bit rate mode                            : Constant
  78. Bit rate                                 : 192 kb/s
  79. Channel(s)                               : 2 channels
  80. Channel layout                           : L R
  81. Sampling rate                            : 48.0 kHz
  82. Frame rate                               : 31.250 FPS (1536 SPF)
  83. Compression mode                         : Lossy
  84. Stream size                              : 184 MiB (1%)
  85. Title                                    : Audio commentary with director Paul Greengrass
  86. Language                                 : English
  87. Service kind                             : Complete Main
  88. Default                                  : No
  89. Forced                                   : No
  90. Original source medium                   : Blu-ray

  91. Text #1
  92. ID                                       : 5
  93. Format                                   : UTF-8
  94. Codec ID                                 : S_TEXT/UTF8
  95. Codec ID/Info                            : UTF-8 Plain Text
  96. Duration                                 : 1 h 56 min
  97. Bit rate                                 : 9 b/s
  98. Frame rate                               : 0.049 FPS
  99. Count of elements                        : 339
  100. Stream size                              : 8.35 KiB (0%)
  101. Title                                    : Forced
  102. Language                                 : English
  103. Default                                  : Yes
  104. Forced                                   : Yes

  105. Text #2
  106. ID                                       : 6
  107. Format                                   : UTF-8
  108. Codec ID                                 : S_TEXT/UTF8
  109. Codec ID/Info                            : UTF-8 Plain Text
  110. Duration                                 : 2 h 4 min
  111. Bit rate                                 : 56 b/s
  112. Frame rate                               : 0.214 FPS
  113. Count of elements                        : 1606
  114. Stream size                              : 51.4 KiB (0%)
  115. Language                                 : English
  116. Default                                  : No
  117. Forced                                   : No

  118. Text #3
  119. ID                                       : 7
  120. Format                                   : UTF-8
  121. Codec ID                                 : S_TEXT/UTF8
  122. Codec ID/Info                            : UTF-8 Plain Text
  123. Duration                                 : 2 h 8 min
  124. Bit rate                                 : 62 b/s
  125. Frame rate                               : 0.242 FPS
  126. Count of elements                        : 1863
  127. Stream size                              : 58.7 KiB (0%)
  128. Title                                    : SDH
  129. Language                                 : English
  130. Default                                  : No
  131. Forced                                   : No

  132. Text #4
  133. ID                                       : 8
  134. Format                                   : UTF-8
  135. Codec ID                                 : S_TEXT/UTF8
  136. Codec ID/Info                            : UTF-8 Plain Text
  137. Duration                                 : 2 h 6 min
  138. Bit rate                                 : 72 b/s
  139. Frame rate                               : 0.222 FPS
  140. Count of elements                        : 1690
  141. Stream size                              : 66.9 KiB (0%)
  142. Language                                 : Arabic
  143. Default                                  : No
  144. Forced                                   : No

  145. Text #5
  146. ID                                       : 9
  147. Format                                   : UTF-8
  148. Codec ID                                 : S_TEXT/UTF8
  149. Codec ID/Info                            : UTF-8 Plain Text
  150. Duration                                 : 2 h 6 min
  151. Bit rate                                 : 48 b/s
  152. Frame rate                               : 0.200 FPS
  153. Count of elements                        : 1526
  154. Stream size                              : 44.6 KiB (0%)
  155. Title                                    : Simplified
  156. Language                                 : Chinese
  157. Default                                  : No
  158. Forced                                   : No

  159. Text #6
  160. ID                                       : 10
  161. Format                                   : UTF-8
  162. Codec ID                                 : S_TEXT/UTF8
  163. Codec ID/Info                            : UTF-8 Plain Text
  164. Duration                                 : 2 h 7 min
  165. Bit rate                                 : 40 b/s
  166. Frame rate                               : 0.202 FPS
  167. Count of elements                        : 1539
  168. Stream size                              : 37.9 KiB (0%)
  169. Title                                    : Traditional
  170. Language                                 : Chinese
  171. Default                                  : No
  172. Forced                                   : No

  173. Text #7
  174. ID                                       : 11
  175. Format                                   : UTF-8
  176. Codec ID                                 : S_TEXT/UTF8
  177. Codec ID/Info                            : UTF-8 Plain Text
  178. Duration                                 : 2 h 13 min
  179. Bit rate                                 : 65 b/s
  180. Frame rate                               : 0.196 FPS
  181. Count of elements                        : 1567
  182. Stream size                              : 64.5 KiB (0%)
  183. Language                                 : Czech
  184. Default                                  : No
  185. Forced                                   : No

  186. Text #8
  187. ID                                       : 12
  188. Format                                   : UTF-8
  189. Codec ID                                 : S_TEXT/UTF8
  190. Codec ID/Info                            : UTF-8 Plain Text
  191. Duration                                 : 2 h 7 min
  192. Bit rate                                 : 48 b/s
  193. Frame rate                               : 0.185 FPS
  194. Count of elements                        : 1411
  195. Stream size                              : 44.8 KiB (0%)
  196. Language                                 : Danish
  197. Default                                  : No
  198. Forced                                   : No

  199. Text #9
  200. ID                                       : 13
  201. Format                                   : UTF-8
  202. Codec ID                                 : S_TEXT/UTF8
  203. Codec ID/Info                            : UTF-8 Plain Text
  204. Duration                                 : 2 h 6 min
  205. Bit rate                                 : 52 b/s
  206. Frame rate                               : 0.194 FPS
  207. Count of elements                        : 1477
  208. Stream size                              : 48.9 KiB (0%)
  209. Language                                 : German
  210. Default                                  : No
  211. Forced                                   : No

  212. Text #10
  213. ID                                       : 14
  214. Format                                   : UTF-8
  215. Codec ID                                 : S_TEXT/UTF8
  216. Codec ID/Info                            : UTF-8 Plain Text
  217. Duration                                 : 2 h 6 min
  218. Bit rate                                 : 106 b/s
  219. Frame rate                               : 0.201 FPS
  220. Count of elements                        : 1531
  221. Stream size                              : 98.6 KiB (0%)
  222. Language                                 : Greek
  223. Default                                  : No
  224. Forced                                   : No

  225. Text #11
  226. ID                                       : 15
  227. Format                                   : UTF-8
  228. Codec ID                                 : S_TEXT/UTF8
  229. Codec ID/Info                            : UTF-8 Plain Text
  230. Duration                                 : 2 h 13 min
  231. Bit rate                                 : 49 b/s
  232. Frame rate                               : 0.189 FPS
  233. Count of elements                        : 1509
  234. Stream size                              : 48.7 KiB (0%)
  235. Title                                    : Latin American
  236. Language                                 : Spanish
  237. Default                                  : No
  238. Forced                                   : No

  239. Text #12
  240. ID                                       : 16
  241. Format                                   : UTF-8
  242. Codec ID                                 : S_TEXT/UTF8
  243. Codec ID/Info                            : UTF-8 Plain Text
  244. Duration                                 : 2 h 13 min
  245. Bit rate                                 : 49 b/s
  246. Frame rate                               : 0.203 FPS
  247. Count of elements                        : 1625
  248. Stream size                              : 48.8 KiB (0%)
  249. Language                                 : Spanish
  250. Default                                  : No
  251. Forced                                   : No

  252. Text #13
  253. ID                                       : 17
  254. Format                                   : UTF-8
  255. Codec ID                                 : S_TEXT/UTF8
  256. Codec ID/Info                            : UTF-8 Plain Text
  257. Duration                                 : 2 h 13 min
  258. Bit rate                                 : 47 b/s
  259. Frame rate                               : 0.180 FPS
  260. Count of elements                        : 1438
  261. Stream size                              : 46.3 KiB (0%)
  262. Language                                 : Finnish
  263. Default                                  : No
  264. Forced                                   : No

  265. Text #14
  266. ID                                       : 18
  267. Format                                   : UTF-8
  268. Codec ID                                 : S_TEXT/UTF8
  269. Codec ID/Info                            : UTF-8 Plain Text
  270. Duration                                 : 2 h 7 min
  271. Bit rate                                 : 41 b/s
  272. Frame rate                               : 0.209 FPS
  273. Count of elements                        : 1596
  274. Stream size                              : 38.7 KiB (0%)
  275. Language                                 : French
  276. Default                                  : No
  277. Forced                                   : No

  278. Text #15
  279. ID                                       : 19
  280. Format                                   : UTF-8
  281. Codec ID                                 : S_TEXT/UTF8
  282. Codec ID/Info                            : UTF-8 Plain Text
  283. Duration                                 : 2 h 7 min
  284. Bit rate                                 : 73 b/s
  285. Frame rate                               : 0.215 FPS
  286. Count of elements                        : 1636
  287. Stream size                              : 68.6 KiB (0%)
  288. Language                                 : Hebrew
  289. Default                                  : No
  290. Forced                                   : No

  291. Text #16
  292. ID                                       : 20
  293. Format                                   : UTF-8
  294. Codec ID                                 : S_TEXT/UTF8
  295. Codec ID/Info                            : UTF-8 Plain Text
  296. Duration                                 : 2 h 13 min
  297. Bit rate                                 : 51 b/s
  298. Frame rate                               : 0.208 FPS
  299. Count of elements                        : 1665
  300. Stream size                              : 50.4 KiB (0%)
  301. Language                                 : Indonesian
  302. Default                                  : No
  303. Forced                                   : No

  304. Text #17
  305. ID                                       : 21
  306. Format                                   : UTF-8
  307. Codec ID                                 : S_TEXT/UTF8
  308. Codec ID/Info                            : UTF-8 Plain Text
  309. Duration                                 : 2 h 13 min
  310. Bit rate                                 : 43 b/s
  311. Frame rate                               : 0.181 FPS
  312. Count of elements                        : 1447
  313. Stream size                              : 42.8 KiB (0%)
  314. Language                                 : Italian
  315. Default                                  : No
  316. Forced                                   : No

  317. Text #18
  318. ID                                       : 22
  319. Format                                   : UTF-8
  320. Codec ID                                 : S_TEXT/UTF8
  321. Codec ID/Info                            : UTF-8 Plain Text
  322. Duration                                 : 2 h 13 min
  323. Bit rate                                 : 44 b/s
  324. Frame rate                               : 0.187 FPS
  325. Count of elements                        : 1495
  326. Stream size                              : 43.7 KiB (0%)
  327. Language                                 : Korean
  328. Default                                  : No
  329. Forced                                   : No

  330. Text #19
  331. ID                                       : 23
  332. Format                                   : UTF-8
  333. Codec ID                                 : S_TEXT/UTF8
  334. Codec ID/Info                            : UTF-8 Plain Text
  335. Duration                                 : 2 h 13 min
  336. Bit rate                                 : 43 b/s
  337. Frame rate                               : 0.151 FPS
  338. Count of elements                        : 1207
  339. Stream size                              : 42.5 KiB (0%)
  340. Language                                 : Dutch
  341. Default                                  : No
  342. Forced                                   : No

  343. Text #20
  344. ID                                       : 24
  345. Format                                   : UTF-8
  346. Codec ID                                 : S_TEXT/UTF8
  347. Codec ID/Info                            : UTF-8 Plain Text
  348. Duration                                 : 2 h 13 min
  349. Bit rate                                 : 51 b/s
  350. Frame rate                               : 0.181 FPS
  351. Count of elements                        : 1446
  352. Stream size                              : 50.0 KiB (0%)
  353. Language                                 : Norwegian
  354. Default                                  : No
  355. Forced                                   : No

  356. Text #21
  357. ID                                       : 25
  358. Format                                   : UTF-8
  359. Codec ID                                 : S_TEXT/UTF8
  360. Codec ID/Info                            : UTF-8 Plain Text
  361. Duration                                 : 2 h 13 min
  362. Bit rate                                 : 40 b/s
  363. Frame rate                               : 0.179 FPS
  364. Count of elements                        : 1433
  365. Stream size                              : 39.3 KiB (0%)
  366. Language                                 : Polish
  367. Default                                  : No
  368. Forced                                   : No

  369. Text #22
  370. ID                                       : 26
  371. Format                                   : UTF-8
  372. Codec ID                                 : S_TEXT/UTF8
  373. Codec ID/Info                            : UTF-8 Plain Text
  374. Duration                                 : 2 h 13 min
  375. Bit rate                                 : 48 b/s
  376. Frame rate                               : 0.188 FPS
  377. Count of elements                        : 1503
  378. Stream size                              : 47.3 KiB (0%)
  379. Title                                    : Brazilian
  380. Language                                 : Portuguese
  381. Default                                  : No
  382. Forced                                   : No

  383. Text #23
  384. ID                                       : 27
  385. Format                                   : UTF-8
  386. Codec ID                                 : S_TEXT/UTF8
  387. Codec ID/Info                            : UTF-8 Plain Text
  388. Duration                                 : 2 h 13 min
  389. Bit rate                                 : 77 b/s
  390. Frame rate                               : 0.209 FPS
  391. Count of elements                        : 1672
  392. Stream size                              : 75.7 KiB (0%)
  393. Language                                 : Russian
  394. Default                                  : No
  395. Forced                                   : No

  396. Text #24
  397. ID                                       : 28
  398. Format                                   : UTF-8
  399. Codec ID                                 : S_TEXT/UTF8
  400. Codec ID/Info                            : UTF-8 Plain Text
  401. Duration                                 : 2 h 13 min
  402. Bit rate                                 : 43 b/s
  403. Frame rate                               : 0.145 FPS
  404. Count of elements                        : 1159
  405. Stream size                              : 42.1 KiB (0%)
  406. Language                                 : Swedish
  407. Default                                  : No
  408. Forced                                   : No

  409. Text #25
  410. ID                                       : 29
  411. Format                                   : UTF-8
  412. Codec ID                                 : S_TEXT/UTF8
  413. Codec ID/Info                            : UTF-8 Plain Text
  414. Duration                                 : 2 h 7 min
  415. Bit rate                                 : 113 b/s
  416. Frame rate                               : 0.205 FPS
  417. Count of elements                        : 1564
  418. Stream size                              : 106 KiB (0%)
  419. Language                                 : Thai
  420. Default                                  : No
  421. Forced                                   : No

  422. Text #26
  423. ID                                       : 30
  424. Format                                   : UTF-8
  425. Codec ID                                 : S_TEXT/UTF8
  426. Codec ID/Info                            : UTF-8 Plain Text
  427. Duration                                 : 2 h 13 min
  428. Bit rate                                 : 51 b/s
  429. Frame rate                               : 0.200 FPS
  430. Count of elements                        : 1600
  431. Stream size                              : 50.0 KiB (0%)
  432. Language                                 : Turkish
  433. Default                                  : No
  434. Forced                                   : No

  435. Text #27
  436. ID                                       : 31
  437. Format                                   : UTF-8
  438. Codec ID                                 : S_TEXT/UTF8
  439. Codec ID/Info                            : UTF-8 Plain Text
  440. Duration                                 : 2 h 7 min
  441. Bit rate                                 : 37 b/s
  442. Frame rate                               : 0.214 FPS
  443. Count of elements                        : 1628
  444. Stream size                              : 34.8 KiB (0%)
  445. Title                                    : Traditional
  446. Language                                 : Chinese
  447. Default                                  : No
  448. Forced                                   : No

  449. Text #28
  450. ID                                       : 32
  451. Format                                   : UTF-8
  452. Codec ID                                 : S_TEXT/UTF8
  453. Codec ID/Info                            : UTF-8 Plain Text
  454. Duration                                 : 2 h 8 min
  455. Bit rate                                 : 59 b/s
  456. Frame rate                               : 0.219 FPS
  457. Count of elements                        : 1683
  458. Stream size                              : 56.2 KiB (0%)
  459. Title                                    : SDH
  460. Language                                 : English
  461. Default                                  : No
  462. Forced                                   : No

  463. Menu
  464. 00:00:00.000                             : en:Chapter 01
  465. 00:09:12.000                             : en:Chapter 02
  466. 00:15:29.000                             : en:Chapter 03
  467. 00:22:47.000                             : en:Chapter 04
  468. 00:30:09.000                             : en:Chapter 05
  469. 00:39:36.000                             : en:Chapter 06
  470. 00:47:58.000                             : en:Chapter 07
  471. 00:58:21.000                             : en:Chapter 08
  472. 01:04:32.000                             : en:Chapter 09
  473. 01:12:58.000                             : en:Chapter 10
  474. 01:19:09.000                             : en:Chapter 11
  475. 01:25:36.000                             : en:Chapter 12
  476. 01:34:08.000                             : en:Chapter 13
  477. 01:41:38.000                             : en:Chapter 14
  478. 01:51:25.000                             : en:Chapter 15
  479. 02:02:31.000                             : en:Chapter 16
复制代码




                                       
                                       

                                       
                                       
                                       




Captain.Phillips.2013.2160p.WEB-DL.x265.10bit.SDR.DTS-HD.MA.5.1-SMURF.torrent (32.68 KB, 下载次数: 1)
回复

使用道具 举报

您需要登录后才可以回帖 登录 | 立即注册

本版积分规则

QQ|Archiver|手机版|小黑屋|蓝光电影网

GMT+8, 2022-11-30 11:31 , Processed in 0.055957 second(s), 28 queries .

Powered by Discuz! X3.4

Copyright © 2001-2020, Tencent Cloud.

快速回复 返回顶部 返回列表