找回密码
 立即注册

QQ登录

只需一步,快速开始

查看: 74|回复: 0

[其他] 卡塔叶时光 Faya.Dayi.2021.AMHARIC.1080p.BluRay.x264.DDP5.1-C0kE 22.19GB

[复制链接]

0

精华

0

好友

2

听众

新手上路

Rank: 2

蓝光币
5
发表于 2022-9-20 07:15:51 | 显示全部楼层 |阅读模式
[img][/img]

◎标  题 卡塔叶时光
◎片  名 Faya Dayi
◎年  代 2021
◎产  地 埃塞俄比亚
◎类  别 纪录片
◎语  言 奥罗莫语、哈拉尔语
◎上映日期 2021-01-30(圣丹斯电影节) / 2021-09-03(美国)
◎IMDb评分 6.8/10 (338人评价)
◎IMDb链接 https://www.imdb.com/title/tt13648216/
◎豆瓣评分 7.4/10 (261人评价)
◎豆瓣链接 https://movie.douban.com/subject/35288815/
◎片  长 120分钟
◎导  演 杰西卡·贝希尔 Jessica Beshir
◎编  剧 杰西卡·贝希尔 Jessica Beshir
◎演  员 杰西卡·贝希尔 Jessica Beshir
       杰西卡·贝希尔 Jessica Beshir
◎简  介

  在埃塞俄比亚的传说中,伊斯兰教苏菲派的伊玛目寻求永恒时,发现了卡塔叶。受此传说的启发,本片带领观众进入哈勒尔高地,体验古老的卡塔叶仪式,展开一段神秘的精神之旅。卡塔叶具有刺激神经的效用,几个世纪以来,苏菲派穆斯林依靠咀嚼这种绿叶来进行宗教冥想。它也是埃塞俄比亚利润最高的经济作物。本片以卡塔叶的交易为纽带,串起一个个私密的故事,让我们得以走近那些在政府暴力压迫下,对卡塔叶上瘾并冒险越境的人们。本片也为观众打开了一扇窗,进入被专制政权追捕的年轻人的梦。
  1. Video
  2. ID                                       : 1
  3. Format                                   : AVC
  4. Format/Info                              : Advanced Video Codec
  5. Format profile                           : [email protected]
  6. Format settings                          : CABAC / 4 Ref Frames
  7. Format settings, CABAC                   : Yes
  8. Format settings, Reference frames        : 4 frames
  9. Codec ID                                 : V_MPEG4/ISO/AVC
  10. Duration                                 : 1 h 58 min
  11. Bit rate                                 : 25.8 Mb/s
  12. Width                                    : 1 920 pixels
  13. Height                                   : 1 080 pixels
  14. Display aspect ratio                     : 16:9
  15. Frame rate mode                          : Constant
  16. Frame rate                               : 23.976 (24000/1001/189150) FPS
  17. Color space                              : YUV
  18. Chroma subsampling                       : 4:2:0
  19. Bit depth                                : 8 bits
  20. Scan type                                : Progressive
  21. Bits/(Pixel*Frame)                       : 0.518
  22. Stream size                              : 21.3 GiB (96%)
  23. Title                                    : Faya Dayi (2021) | Criterion Blu-ray | c0kE
  24. Writing library                          : x264 core 164 r3094+49M 0246926 devel [(8 & 10)[email protected] X86_64]
  25. Encoding settings                        : cabac=1 / ref=4 / deblock=1:-3:-3 / analyse=0x3:0x133 / me=umh / subme=10 / psy=1 / fade_compensate=0.00 / psy_rd=1.00:0.00 / mixed_ref=1 / me_range=32 / chroma_me=1 / trellis=2 / 8x8dct=1 / cqm=0 / deadzone=21,11 / fast_pskip=0 / chroma_qp_offset=-2 / threads=12 / lookahead_threads=3 / sliced_threads=0 / nr=0 / decimate=0 / interlaced=0 / bluray_compat=0 / constrained_intra=0 / fgo=0 / bframes=14 / b_pyramid=2 / b_adapt=2 / b_bias=0 / direct=3 / weightb=1 / open_gop=0 / weightp=2 / keyint=250 / keyint_min=23 / scenecut=40 / intra_refresh=0 / rc_lookahead=60 / rc=crf / mbtree=0 / crf=18.4000 / qcomp=0.60 / qpmin=0:0:0 / qpmax=69:69:69 / qpstep=4 / vbv_maxrate=62500 / vbv_bufsize=78125 / crf_max=0.0 / nal_hrd=none / filler=0 / ip_ratio=1.40 / pb_ratio=1.30 / aq=3:0.75 / aq-sensitivity=10.00 / aq-factor=1.00:1.00:1.00 / aq2=0 / aq3=0
  26. Language                                 : English
  27. Default                                  : Yes
  28. Forced                                   : No
  29. Color range                              : Limited
  30. Color primaries                          : BT.709
  31. Matrix coefficients                      : BT.709
  32. Audio
  33. ID                                       : 2
  34. Format                                   : E-AC-3
  35. Format/Info                              : Enhanced AC-3
  36. Commercial name                          : Dolby Digital Plus
  37. Codec ID                                 : A_EAC3
  38. Duration                                 : 1 h 58 min
  39. Bit rate mode                            : Constant
  40. Bit rate                                 : 1 024 kb/s
  41. Channel(s)                               : 6 channels
  42. Channel layout                           : L R C LFE Ls Rs
  43. Sampling rate                            : 48.0 kHz
  44. Frame rate                               : 31.250 FPS (1536 SPF)
  45. Compression mode                         : Lossy
  46. Stream size                              : 869 MiB (4%)
  47. Language                                 : Amharic
  48. Service kind                             : Complete Main
  49. Default                                  : Yes
  50. Forced                                   : No
  51. Text #1
  52. ID                                       : 3
  53. Format                                   : UTF-8
  54. Codec ID                                 : S_TEXT/UTF8
  55. Codec ID/Info                            : UTF-8 Plain Text
  56. Duration                                 : 1 h 50 min
  57. Bit rate                                 : 20 b/s
  58. Frame rate                               : 0.079 FPS
  59. Count of elements                        : 528
  60. Stream size                              : 16.8 KiB (0%)
  61. Language                                 : English
  62. Default                                  : Yes
  63. Forced                                   : No
  64. Text #2
  65. ID                                       : 4
  66. Format                                   : UTF-8
  67. Codec ID                                 : S_TEXT/UTF8
  68. Codec ID/Info                            : UTF-8 Plain Text
  69. Duration                                 : 1 h 50 min
  70. Bit rate                                 : 21 b/s
  71. Frame rate                               : 0.077 FPS
  72. Count of elements                        : 513
  73. Stream size                              : 17.7 KiB (0%)
  74. Language                                 : English
  75. Default                                  : No
  76. Forced                                   : No
  77. Text #3
  78. ID                                       : 5
  79. Format                                   : UTF-8
  80. Codec ID                                 : S_TEXT/UTF8
  81. Codec ID/Info                            : UTF-8 Plain Text
  82. Duration                                 : 1 h 54 min
  83. Bit rate                                 : 20 b/s
  84. Frame rate                               : 0.070 FPS
  85. Count of elements                        : 477
  86. Stream size                              : 17.3 KiB (0%)
  87. Language                                 : French
  88. Default                                  : No
  89. Forced                                   : No
  90. Text #4
  91. ID                                       : 6
  92. Format                                   : UTF-8
  93. Codec ID                                 : S_TEXT/UTF8
  94. Codec ID/Info                            : UTF-8 Plain Text
  95. Duration                                 : 1 h 50 min
  96. Bit rate                                 : 25 b/s
  97. Frame rate                               : 0.077 FPS
  98. Count of elements                        : 513
  99. Stream size                              : 20.6 KiB (0%)
  100. Language                                 : German
  101. Default                                  : No
  102. Forced                                   : No
  103. Text #5
  104. ID                                       : 7
  105. Format                                   : UTF-8
  106. Codec ID                                 : S_TEXT/UTF8
  107. Codec ID/Info                            : UTF-8 Plain Text
  108. Duration                                 : 1 h 50 min
  109. Bit rate                                 : 22 b/s
  110. Frame rate                               : 0.078 FPS
  111. Count of elements                        : 518
  112. Stream size                              : 18.6 KiB (0%)
  113. Language                                 : Italian
  114. Default                                  : No
  115. Forced                                   : No
  116. Text #6
  117. ID                                       : 8
  118. Format                                   : UTF-8
  119. Codec ID                                 : S_TEXT/UTF8
  120. Codec ID/Info                            : UTF-8 Plain Text
  121. Duration                                 : 1 h 50 min
  122. Bit rate                                 : 21 b/s
  123. Frame rate                               : 0.075 FPS
  124. Count of elements                        : 496
  125. Stream size                              : 17.4 KiB (0%)
  126. Title                                    : Brazilian
  127. Language                                 : Portuguese
  128. Default                                  : No
  129. Forced                                   : No
  130. Text #7
  131. ID                                       : 9
  132. Format                                   : UTF-8
  133. Codec ID                                 : S_TEXT/UTF8
  134. Codec ID/Info                            : UTF-8 Plain Text
  135. Duration                                 : 1 h 50 min
  136. Bit rate                                 : 22 b/s
  137. Frame rate                               : 0.077 FPS
  138. Count of elements                        : 513
  139. Stream size                              : 18.4 KiB (0%)
  140. Language                                 : Spanish
  141. Default                                  : No
  142. Forced                                   : No
  143. Text #8
  144. ID                                       : 10
  145. Format                                   : UTF-8
  146. Codec ID                                 : S_TEXT/UTF8
  147. Codec ID/Info                            : UTF-8 Plain Text
  148. Duration                                 : 1 h 50 min
  149. Bit rate                                 : 21 b/s
  150. Frame rate                               : 0.076 FPS
  151. Count of elements                        : 507
  152. Stream size                              : 17.7 KiB (0%)
  153. Language                                 : Turkish
  154. Default                                  : No
  155. Forced                                   : No
  156. Menu
  157. 00:00:00.000                             : en:Eternal Life
  158. 00:07:08.970                             : en:Harvest
  159. 00:12:28.581                             : en:Mothers and Sons
  160. 00:22:47.950                             : en:Sustenance
  161. 00:30:58.356                             : en:Khat
  162. 00:35:14.154                             : en:Separation
  163. 00:40:42.815                             : en:Merkhana
  164. 00:48:07.468                             : en:Homesick
  165. 00:58:10.112                             : en:Father
  166. 01:05:18.957                             : en:Ceremony
  167. 01:13:19.937                             : en:Sacrifice
  168. 01:19:32.309                             : en:Cargo
  169. 01:25:48.935                             : en:Of the Earth
  170. 01:32:27.333                             : en:Fire Inside
  171. 01:40:25.978                             : en:A Way Out
  172. 01:50:07.392                             : en:Into the Night
  173. 01:55:11.655                             : en:End Credits
复制代码




                                       
                                       

                                       
                                       
                                       




Faya.Dayi.2021.AMHARIC.1080p.BluRay.x264.DDP5.1-C0kE.torrent (28.37 KB, 下载次数: 0)
回复

使用道具 举报

您需要登录后才可以回帖 登录 | 立即注册

本版积分规则

QQ|Archiver|手机版|小黑屋|蓝光电影网

GMT+8, 2022-12-1 20:26 , Processed in 0.067661 second(s), 28 queries .

Powered by Discuz! X3.4

Copyright © 2001-2020, Tencent Cloud.

快速回复 返回顶部 返回列表