找回密码
 立即注册

QQ登录

只需一步,快速开始

查看: 76|回复: 0

[其他] 女校惊魂夜 The.House.That.Screamed.1969.EXTENDED.1080p.BluRay.x264.FLAC1.0-XP2014 6.55GB

[复制链接]

0

精华

0

好友

2

听众

新手上路

Rank: 2

蓝光币
5
发表于 2022-9-20 07:15:46 | 显示全部楼层 |阅读模式
[img][/img]

◎标  题 女校惊魂夜
◎译  名 The Boarding School / The House That Screamed / 象牙色のアイドル
◎片  名 La residencia
◎年  代 1970
◎产  地 西班牙
◎类  别 悬疑 / 惊悚 / 恐怖
◎语  言 英语 / 西班牙语
◎上映日期 1970-01-12(西班牙)
◎IMDb评分 6.8/10 (3437人评价)
◎IMDb链接 https://www.imdb.com/title/tt0064888/
◎豆瓣评分 7.1/10 (222人评价)
◎豆瓣链接 https://movie.douban.com/subject/3426457/
◎片  长 102分钟
◎导  演 纳西索·伊班内兹·塞拉多尔 Narciso Ibáñez Serrador
◎编  剧 纳西索·伊班内兹·塞拉多尔 Narciso Ibáñez Serrador
       Juan Tébar Juan Tébar
◎演  员 莉莉·帕尔默 Lilli Palmer
       克里斯蒂娜·伽尔博 Cristina Galbó
       约翰 梅尔德-布朗 John Moulder-Brown
       玛丽贝尔·马丁 Maribel Martín
       Cándida Losada Cándida Losada
       Pauline Challoner Pauline Challoner
       Tomás Blanco Tomás Blanco
       Víctor Israel Víctor Israel
       Teresa Hurtado Teresa Hurtado
       María José Valero María José Valero
       Loreta Tovar Loreta Tovar
       Luisa Sala Luisa Sala
       弗兰克·布拉尼亚 Frank Braña
       玛丽·莫德 Mary Maude
       Waldo de los Ríos Waldo de los Ríos
       Manuel Berenguer Manuel Berenguer
       雷金纳德·米尔斯 Reginald Mills
       Ramiro Gómez Ramiro Gómez
◎简  介

  西班牙恐怖片大师Ibáñez-Serrador一鸣惊人的电影处女作(他的另一部经典是《谁能杀死孩子》)。片中众多美少女、美少男以及导演如何在佛朗哥治下严格禁欲的电影审查束缚中巧妙地表现强烈的性欲是这部电影额外的两大看点。
  1. Video
  2. ID                                       : 1
  3. Format                                   : AVC
  4. Format/Info                              : Advanced Video Codec
  5. Format profile                           : [email protected]
  6. Format settings                          : CABAC / 4 Ref Frames
  7. Format settings, CABAC                   : Yes
  8. Format settings, Reference frames        : 4 frames
  9. Codec ID                                 : V_MPEG4/ISO/AVC
  10. Duration                                 : 1 h 43 min
  11. Bit rate                                 : 8 419 kb/s
  12. Width                                    : 1 916 pixels
  13. Height                                   : 816 pixels
  14. Display aspect ratio                     : 2.35:1
  15. Frame rate mode                          : Constant
  16. Frame rate                               : 23.976 (24000/1001/189150) FPS
  17. Color space                              : YUV
  18. Chroma subsampling                       : 4:2:0
  19. Bit depth                                : 8 bits
  20. Scan type                                : Progressive
  21. Bits/(Pixel*Frame)                       : 0.225
  22. Stream size                              : 6.10 GiB (93%)
  23. Title                                    : Bluray x264 crf 19 1080p
  24. Writing library                          : x264 core 150 r2833 df79067
  25. Encoding settings                        : cabac=1 / ref=4 / deblock=1:-3:-3 / analyse=0x3:0x133 / me=tesa / subme=11 / psy=1 / psy_rd=1.00:0.15 / mixed_ref=1 / me_range=32 / chroma_me=1 / trellis=2 / 8x8dct=1 / cqm=0 / deadzone=21,11 / fast_pskip=0 / chroma_qp_offset=-3 / threads=12 / lookahead_threads=3 / sliced_threads=0 / nr=0 / decimate=1 / interlaced=0 / bluray_compat=0 / constrained_intra=0 / bframes=16 / b_pyramid=2 / b_adapt=2 / b_bias=0 / direct=3 / weightb=1 / open_gop=0 / weightp=2 / keyint=250 / keyint_min=23 / scenecut=40 / intra_refresh=0 / rc_lookahead=60 / rc=crf / mbtree=1 / crf=19.0 / qcomp=0.60 / qpmin=0 / qpmax=69 / qpstep=4 / ip_ratio=1.40 / aq=2:1.00
  26. Language                                 : English
  27. Default                                  : Yes
  28. Forced                                   : No
  29. Color range                              : Limited
  30. Color primaries                          : BT.709
  31. Matrix coefficients                      : BT.709
  32. Audio
  33. ID                                       : 2
  34. Format                                   : FLAC
  35. Format/Info                              : Free Lossless Audio Codec
  36. Codec ID                                 : A_FLAC
  37. Duration                                 : 1 h 43 min
  38. Bit rate mode                            : Variable
  39. Bit rate                                 : 601 kb/s
  40. Channel(s)                               : 1 channel
  41. Channel layout                           : C
  42. Sampling rate                            : 48.0 kHz
  43. Frame rate                               : 11.719 FPS (4096 SPF)
  44. Bit depth                                : 24 bits
  45. Compression mode                         : Lossless
  46. Stream size                              : 446 MiB (7%)
  47. Title                                    : English 1.0 FLAC
  48. Writing library                          : libFLAC 1.2.1 (UTC 2007-09-17)
  49. Language                                 : English
  50. Default                                  : Yes
  51. Forced                                   : No
  52. Text #1
  53. ID                                       : 3
  54. Format                                   : UTF-8
  55. Codec ID                                 : S_TEXT/UTF8
  56. Codec ID/Info                            : UTF-8 Plain Text
  57. Duration                                 : 1 h 41 min
  58. Bit rate                                 : 44 b/s
  59. Frame rate                               : 0.186 FPS
  60. Count of elements                        : 1135
  61. Stream size                              : 33.0 KiB (0%)
  62. Title                                    : English SRT
  63. Language                                 : English
  64. Default                                  : No
  65. Forced                                   : No
  66. Text #2
  67. ID                                       : 4
  68. Format                                   : PGS
  69. Muxing mode                              : zlib
  70. Codec ID                                 : S_HDMV/PGS
  71. Codec ID/Info                            : Picture based subtitle format used on BDs/HD-DVDs
  72. Duration                                 : 1 h 43 min
  73. Bit rate                                 : 19.8 kb/s
  74. Frame rate                               : 0.429 FPS
  75. Count of elements                        : 2660
  76. Stream size                              : 14.6 MiB (0%)
  77. Title                                    : English SUP
  78. Language                                 : English
  79. Default                                  : No
  80. Forced                                   : No
  81. Menu
  82. 00:00:00.000                             : en:00:00:00.000
  83. 00:10:09.150                             : en:00:10:09.150
  84. 00:19:12.777                             : en:00:19:12.777
  85. 00:28:51.647                             : en:00:28:51.647
  86. 00:36:44.994                             : en:00:36:44.994
  87. 00:44:36.966                             : en:00:44:36.966
  88. 00:54:42.779                             : en:00:54:42.779
  89. 01:01:56.087                             : en:01:01:56.087
  90. 01:10:31.811                             : en:01:10:31.811
  91. 01:17:21.512                             : en:01:17:21.512
  92. 01:28:15.332                             : en:01:28:15.332
  93. 01:36:16.104                             : en:01:36:16.104
复制代码




                                       
                                       

                                       
                                       
                                       




The.House.That.Screamed.1969.EXTENDED.1080p.BluRay.x264.FLAC1.0-XP2014.torrent (17.02 KB, 下载次数: 2)
回复

使用道具 举报

您需要登录后才可以回帖 登录 | 立即注册

本版积分规则

QQ|Archiver|手机版|小黑屋|蓝光电影网

GMT+8, 2022-12-1 21:34 , Processed in 0.052520 second(s), 28 queries .

Powered by Discuz! X3.4

Copyright © 2001-2020, Tencent Cloud.

快速回复 返回顶部 返回列表