找回密码
 立即注册

QQ登录

只需一步,快速开始

查看: 104|回复: 1

[动作片] 雷神4:爱与雷霆 Thor.Love.And.Thunder.2022.1080p.BluRay.x264.DTS-NOGRP 13.01GB

[复制链接]

0

精华

0

好友

2

听众

新手上路

Rank: 2

蓝光币
5
发表于 2022-9-20 07:06:43 | 显示全部楼层 |阅读模式
[img][/img]

◎标  题 雷神4:爱与雷霆
◎译  名 雷神4 / 雷神奇侠4:爱与雷霆(港) / 雷神索尔:爱与雷霆(台)
◎片  名 Thor: Love and Thunder
◎年  代 2022
◎产  地 美国 / 澳大利亚
◎类  别 动作 / 奇幻 / 冒险
◎语  言 英语
◎上映日期 2022(中国大陆) / 2022-07-06(中国香港) / 2022-07-08(美国)
◎IMDb链接 https://www.imdb.com/title/tt10648342/
◎豆瓣链接 https://movie.douban.com/subject/34477861/
◎片  长 119分钟
◎导  演 塔伊加·维迪提 Taika Waititi
◎编  剧 塔伊加·维迪提 Taika Waititi
       詹尼弗·凯廷·罗宾逊 Jennifer Kaytin Robinson
       斯坦·李 Stan Lee
◎演  员 克里斯·海姆斯沃斯 Chris Hemsworth
       娜塔莉·波特曼 Natalie Portman
       克里斯蒂安·贝尔 Christian Bale
       泰莎·汤普森 Tessa Thompson
       塔伊加·维迪提 Taika Waititi
       罗素·克劳 Russell Crowe
       杰米·亚历山大 Jaimie Alexander
       克里斯·帕拉特 Chris Pratt
       戴夫·巴蒂斯塔 Dave Bautista
       凯伦·吉兰 Karen Gillan
       庞·克莱门捷夫 Pom Klementieff
       肖恩·古恩 Sean Gunn
       范·迪塞尔 Vin Diesel
       布莱德利·库珀 Bradley Cooper
       本·法尔科内 Ben Falcone
       史蒂芬·库里 Stephen Curry
       鲍比·霍兰德·汉顿 Bobby Holland Hanton
       戴利·皮尔森 Daley Pearson
       西蒙·拉塞尔·比尔 Simon Russell Beale
       乔尼·布鲁 Jonny Brugh
       布鲁克·斯塔奇威尔 Brooke Satchwell
       埃尔莎·帕塔奇 Elsa Pataky
       埃莉扎·德苏扎 Eliza D'Souza
       卡恩·古尔杜尔 Kaan Guldur
       普里西拉·道伊西 Priscilla Doueihy
       斯蒂芬·亨特 Stephen Hunter
       印第安娜·伊万斯 Indiana Evans
       艾娃·卡约菲丽斯 Ava Caryofyllis
       本·辛克莱尔 Ben Sinclair
       博特·高登斯汀 Brett Goldstein
       卢克·海姆斯沃斯 Luke Hemsworth
       马特·达蒙 Matt Damon
       梅丽莎·麦卡西 Melissa McCarthy
       山姆·尼尔 Sam Neill
       马克·卡西米尔·戴妮奇斯 Mark Casimir Dyniewicz
       凯文·费奇 Kevin Feige
       马克·马瑟斯鲍夫 Mark Mothersbaugh
       玛耶斯·C·鲁贝奥 Mayes C. Rubeo
◎简  介

  影片故事发在在《复仇者联盟4:终局之战》事件之后,雷神索尔(克里斯·海姆斯沃斯 饰)踏上了一段他从未经历过的旅程:找回自我。但索尔的退休计划却被企图消灭众神的屠神者格尔(克里斯蒂安·贝尔 饰)打断,他只好与女武神瓦尔基里(泰莎·汤普森 饰)和寇格(塔伊加·维迪提 饰)再次联手,其间更发现自己八年未见的前女友简·福斯特(娜塔莉·波特曼 饰)获得了雷神之力、挥舞着多年前在自己面前毁灭的雷神之锤,令索尔惊讶不已。他们一起踏上了星际冒险,以揭开格尔的复仇之谜,并在为时已晚之前阻止他。
  1. Video
  2. ID                                       : 1
  3. Format                                   : AVC
  4. Format/Info                              : Advanced Video Codec
  5. Format profile                           : [email protected]
  6. Format settings                          : CABAC / 5 Ref Frames
  7. Format settings, CABAC                   : Yes
  8. Format settings, Reference frames        : 5 frames
  9. Codec ID                                 : V_MPEG4/ISO/AVC
  10. Duration                                 : 1 h 58 min
  11. Bit rate                                 : 14.2 Mb/s
  12. Width                                    : 1 920 pixels
  13. Height                                   : 804 pixels
  14. Display aspect ratio                     : 2.40:1
  15. Frame rate mode                          : Constant
  16. Frame rate                               : 23.976 (24000/1001/189150) FPS
  17. Color space                              : YUV
  18. Chroma subsampling                       : 4:2:0
  19. Bit depth                                : 8 bits
  20. Scan type                                : Progressive
  21. Bits/(Pixel*Frame)                       : 0.383
  22. Stream size                              : 11.8 GiB (90%)
  23. Writing library                          : x264 core 164 r3075+55M t_mod
  24. Encoding settings                        : cabac=1 / ref=5 / deblock=1:-3:-3 / analyse=0x3:0x133 / me=umh / subme=10 / psy=1 / fade_compensate=0.00 / psy_rd=1.00:0.00 / mixed_ref=1 / me_range=32 / chroma_me=1 / trellis=2 / 8x8dct=1 / cqm=0 / deadzone=21,11 / fast_pskip=0 / chroma_qp_offset=-2 / threads=12 / lookahead_threads=2 / sliced_threads=0 / nr=0 / decimate=0 / interlaced=0 / bluray_compat=0 / constrained_intra=0 / fgo=0 / bframes=9 / b_pyramid=2 / b_adapt=2 / b_bias=0 / direct=3 / weightb=1 / open_gop=0 / weightp=2 / keyint=250 / keyint_min=23 / scenecut=40 / intra_refresh=0 / rc=crf / mbtree=0 / crf=14.5000 / qcomp=0.60 / qpmin=0:0:0 / qpmax=69:69:69 / qpstep=4 / ip_ratio=1.30 / pb_ratio=1.20 / aq=3:0.85 / aq-sensitivity=10.00 / aq-factor=1.00:1.00:1.00 / aq2=0 / aq3=0
  25. Language                                 : English
  26. Default                                  : Yes
  27. Forced                                   : No
  28. Audio
  29. ID                                       : 2
  30. Format                                   : DTS
  31. Format/Info                              : Digital Theater Systems
  32. Codec ID                                 : A_DTS
  33. Duration                                 : 1 h 58 min
  34. Bit rate mode                            : Constant
  35. Bit rate                                 : 1 509 kb/s
  36. Channel(s)                               : 6 channels
  37. Channel layout                           : C L R Ls Rs LFE
  38. Sampling rate                            : 48.0 kHz
  39. Frame rate                               : 93.750 FPS (512 SPF)
  40. Bit depth                                : 24 bits
  41. Compression mode                         : Lossy
  42. Stream size                              : 1.25 GiB (10%)
  43. Language                                 : English
  44. Default                                  : Yes
  45. Forced                                   : No
  46. Text #1
  47. ID                                       : 3
  48. Format                                   : UTF-8
  49. Codec ID                                 : S_TEXT/UTF8
  50. Codec ID/Info                            : UTF-8 Plain Text
  51. Duration                                 : 1 h 57 min
  52. Bit rate                                 : 56 b/s
  53. Frame rate                               : 0.252 FPS
  54. Count of elements                        : 1782
  55. Stream size                              : 48.8 KiB (0%)
  56. Language                                 : English
  57. Default                                  : Yes
  58. Forced                                   : No
  59. Text #2
  60. ID                                       : 4
  61. Format                                   : UTF-8
  62. Codec ID                                 : S_TEXT/UTF8
  63. Codec ID/Info                            : UTF-8 Plain Text
  64. Duration                                 : 1 h 58 min
  65. Bit rate                                 : 69 b/s
  66. Frame rate                               : 0.319 FPS
  67. Count of elements                        : 2262
  68. Stream size                              : 60.2 KiB (0%)
  69. Title                                    : SDH
  70. Language                                 : English
  71. Default                                  : No
  72. Forced                                   : No
  73. Text #3
  74. ID                                       : 5
  75. Format                                   : UTF-8
  76. Codec ID                                 : S_TEXT/UTF8
  77. Codec ID/Info                            : UTF-8 Plain Text
  78. Duration                                 : 1 h 57 min
  79. Bit rate                                 : 48 b/s
  80. Frame rate                               : 0.227 FPS
  81. Count of elements                        : 1607
  82. Stream size                              : 41.8 KiB (0%)
  83. Language                                 : Czech
  84. Default                                  : No
  85. Forced                                   : No
  86. Text #4
  87. ID                                       : 6
  88. Format                                   : UTF-8
  89. Codec ID                                 : S_TEXT/UTF8
  90. Codec ID/Info                            : UTF-8 Plain Text
  91. Duration                                 : 1 h 57 min
  92. Bit rate                                 : 44 b/s
  93. Frame rate                               : 0.140 FPS
  94. Count of elements                        : 990
  95. Stream size                              : 38.4 KiB (0%)
  96. Language                                 : Danish
  97. Default                                  : No
  98. Forced                                   : No
  99. Text #5
  100. ID                                       : 7
  101. Format                                   : UTF-8
  102. Codec ID                                 : S_TEXT/UTF8
  103. Codec ID/Info                            : UTF-8 Plain Text
  104. Duration                                 : 1 h 57 min
  105. Bit rate                                 : 50 b/s
  106. Frame rate                               : 0.196 FPS
  107. Count of elements                        : 1388
  108. Stream size                              : 43.4 KiB (0%)
  109. Language                                 : Dutch
  110. Default                                  : No
  111. Forced                                   : No
  112. Text #6
  113. ID                                       : 8
  114. Format                                   : UTF-8
  115. Codec ID                                 : S_TEXT/UTF8
  116. Codec ID/Info                            : UTF-8 Plain Text
  117. Duration                                 : 1 h 57 min
  118. Bit rate                                 : 55 b/s
  119. Frame rate                               : 0.227 FPS
  120. Count of elements                        : 1606
  121. Stream size                              : 47.6 KiB (0%)
  122. Language                                 : Finnish
  123. Default                                  : No
  124. Forced                                   : No
  125. Text #7
  126. ID                                       : 9
  127. Format                                   : UTF-8
  128. Codec ID                                 : S_TEXT/UTF8
  129. Codec ID/Info                            : UTF-8 Plain Text
  130. Duration                                 : 1 h 57 min
  131. Bit rate                                 : 45 b/s
  132. Frame rate                               : 0.213 FPS
  133. Count of elements                        : 1504
  134. Stream size                              : 39.0 KiB (0%)
  135. Language                                 : French
  136. Default                                  : No
  137. Forced                                   : No
  138. Text #8
  139. ID                                       : 10
  140. Format                                   : UTF-8
  141. Codec ID                                 : S_TEXT/UTF8
  142. Codec ID/Info                            : UTF-8 Plain Text
  143. Duration                                 : 1 h 57 min
  144. Bit rate                                 : 46 b/s
  145. Frame rate                               : 0.208 FPS
  146. Count of elements                        : 1472
  147. Stream size                              : 40.5 KiB (0%)
  148. Language                                 : German
  149. Default                                  : No
  150. Forced                                   : No
  151. Text #9
  152. ID                                       : 11
  153. Format                                   : UTF-8
  154. Codec ID                                 : S_TEXT/UTF8
  155. Codec ID/Info                            : UTF-8 Plain Text
  156. Duration                                 : 1 h 57 min
  157. Bit rate                                 : 88 b/s
  158. Frame rate                               : 0.227 FPS
  159. Count of elements                        : 1602
  160. Stream size                              : 76.7 KiB (0%)
  161. Language                                 : Greek
  162. Default                                  : No
  163. Forced                                   : No
  164. Text #10
  165. ID                                       : 12
  166. Format                                   : UTF-8
  167. Codec ID                                 : S_TEXT/UTF8
  168. Codec ID/Info                            : UTF-8 Plain Text
  169. Duration                                 : 1 h 57 min
  170. Bit rate                                 : 46 b/s
  171. Frame rate                               : 0.228 FPS
  172. Count of elements                        : 1611
  173. Stream size                              : 40.5 KiB (0%)
  174. Language                                 : Hungarian
  175. Default                                  : No
  176. Forced                                   : No
  177. Text #11
  178. ID                                       : 13
  179. Format                                   : UTF-8
  180. Codec ID                                 : S_TEXT/UTF8
  181. Codec ID/Info                            : UTF-8 Plain Text
  182. Duration                                 : 1 h 57 min
  183. Bit rate                                 : 51 b/s
  184. Frame rate                               : 0.226 FPS
  185. Count of elements                        : 1601
  186. Stream size                              : 44.7 KiB (0%)
  187. Language                                 : Icelandic
  188. Default                                  : No
  189. Forced                                   : No
  190. Text #12
  191. ID                                       : 14
  192. Format                                   : UTF-8
  193. Codec ID                                 : S_TEXT/UTF8
  194. Codec ID/Info                            : UTF-8 Plain Text
  195. Duration                                 : 1 h 57 min
  196. Bit rate                                 : 56 b/s
  197. Frame rate                               : 0.227 FPS
  198. Count of elements                        : 1607
  199. Stream size                              : 48.8 KiB (0%)
  200. Language                                 : Italian
  201. Default                                  : No
  202. Forced                                   : No
  203. Text #13
  204. ID                                       : 15
  205. Format                                   : UTF-8
  206. Codec ID                                 : S_TEXT/UTF8
  207. Codec ID/Info                            : UTF-8 Plain Text
  208. Duration                                 : 1 h 57 min
  209. Bit rate                                 : 47 b/s
  210. Frame rate                               : 0.228 FPS
  211. Count of elements                        : 1612
  212. Stream size                              : 41.3 KiB (0%)
  213. Language                                 : Norwegian
  214. Default                                  : No
  215. Forced                                   : No
  216. Text #14
  217. ID                                       : 16
  218. Format                                   : UTF-8
  219. Codec ID                                 : S_TEXT/UTF8
  220. Codec ID/Info                            : UTF-8 Plain Text
  221. Duration                                 : 1 h 57 min
  222. Bit rate                                 : 42 b/s
  223. Frame rate                               : 0.228 FPS
  224. Count of elements                        : 1610
  225. Stream size                              : 37.0 KiB (0%)
  226. Language                                 : Polish
  227. Default                                  : No
  228. Forced                                   : No
  229. Text #15
  230. ID                                       : 17
  231. Format                                   : UTF-8
  232. Codec ID                                 : S_TEXT/UTF8
  233. Codec ID/Info                            : UTF-8 Plain Text
  234. Duration                                 : 1 h 58 min
  235. Bit rate                                 : 52 b/s
  236. Frame rate                               : 0.221 FPS
  237. Count of elements                        : 1573
  238. Stream size                              : 45.8 KiB (0%)
  239. Language                                 : Portuguese
  240. Default                                  : No
  241. Forced                                   : No
  242. Text #16
  243. ID                                       : 18
  244. Format                                   : UTF-8
  245. Codec ID                                 : S_TEXT/UTF8
  246. Codec ID/Info                            : UTF-8 Plain Text
  247. Duration                                 : 1 h 57 min
  248. Bit rate                                 : 55 b/s
  249. Frame rate                               : 0.211 FPS
  250. Count of elements                        : 1492
  251. Stream size                              : 47.6 KiB (0%)
  252. Language                                 : Romanian
  253. Default                                  : No
  254. Forced                                   : No
  255. Text #17
  256. ID                                       : 19
  257. Format                                   : UTF-8
  258. Codec ID                                 : S_TEXT/UTF8
  259. Codec ID/Info                            : UTF-8 Plain Text
  260. Duration                                 : 1 h 57 min
  261. Bit rate                                 : 46 b/s
  262. Frame rate                               : 0.228 FPS
  263. Count of elements                        : 1612
  264. Stream size                              : 39.8 KiB (0%)
  265. Language                                 : Slovak
  266. Default                                  : No
  267. Forced                                   : No
  268. Text #18
  269. ID                                       : 20
  270. Format                                   : UTF-8
  271. Codec ID                                 : S_TEXT/UTF8
  272. Codec ID/Info                            : UTF-8 Plain Text
  273. Duration                                 : 1 h 57 min
  274. Bit rate                                 : 49 b/s
  275. Frame rate                               : 0.227 FPS
  276. Count of elements                        : 1603
  277. Stream size                              : 42.7 KiB (0%)
  278. Language                                 : Spanish
  279. Default                                  : No
  280. Forced                                   : No
  281. Text #19
  282. ID                                       : 21
  283. Format                                   : UTF-8
  284. Codec ID                                 : S_TEXT/UTF8
  285. Codec ID/Info                            : UTF-8 Plain Text
  286. Duration                                 : 1 h 57 min
  287. Bit rate                                 : 47 b/s
  288. Frame rate                               : 0.165 FPS
  289. Count of elements                        : 1166
  290. Stream size                              : 41.1 KiB (0%)
  291. Language                                 : Swedish
  292. Default                                  : No
  293. Forced                                   : No
  294. Text #20
  295. ID                                       : 22
  296. Format                                   : UTF-8
  297. Codec ID                                 : S_TEXT/UTF8
  298. Codec ID/Info                            : UTF-8 Plain Text
  299. Duration                                 : 1 h 57 min
  300. Bit rate                                 : 53 b/s
  301. Frame rate                               : 0.228 FPS
  302. Count of elements                        : 1609
  303. Stream size                              : 46.1 KiB (0%)
  304. Language                                 : Turkish
  305. Default                                  : No
  306. Forced                                   : No
  307. Menu
  308. 00:00:00.000                             : :Chapter 01
  309. 00:06:45.155                             : :Chapter 02
  310. 00:10:11.319                             : :Chapter 03
  311. 00:14:23.780                             : :Chapter 04
  312. 00:18:13.426                             : :Chapter 05
  313. 00:20:59.508                             : :Chapter 06
  314. 00:21:47.806                             : :Chapter 07
  315. 00:27:00.994                             : :Chapter 08
  316. 00:28:16.194                             : :Chapter 09
  317. 00:29:52.249                             : :Chapter 10
  318. 00:31:24.508                             : :Chapter 11
  319. 00:35:15.113                             : :Chapter 12
  320. 00:38:40.443                             : :Chapter 13
  321. 00:45:37.443                             : :Chapter 14
  322. 00:53:04.223                             : :Chapter 15
  323. 01:06:19.392                             : :Chapter 16
  324. 01:14:16.911                             : :Chapter 17
  325. 01:24:35.821                             : :Chapter 18
  326. 01:28:31.181                             : :Chapter 19
  327. 01:30:19.998                             : :Chapter 20
  328. 01:34:17.652                             : :Chapter 21
  329. 01:38:12.678                             : :Chapter 22
  330. 01:44:45.529                             : :Chapter 23
  331. 01:48:17.616                             : :Chapter 24
  332. 01:50:03.430                             : :Chapter 25
  333. 01:51:14.710                             : :Chapter 26
复制代码




                                       
                                       

                                       
                                       
                                       




Thor.Love.And.Thunder.2022.1080p.BluRay.x264.DTS-NOGRP.torrent (16.9 KB, 下载次数: 9)
回复

使用道具 举报

0

精华

0

好友

2

听众

新手上路

Rank: 1

蓝光币
0
发表于 2022-9-25 20:37:19 | 显示全部楼层
好资源,感谢分享
回复

使用道具 举报

您需要登录后才可以回帖 登录 | 立即注册

本版积分规则

QQ|Archiver|手机版|小黑屋|蓝光电影网

GMT+8, 2022-12-1 21:36 , Processed in 0.053975 second(s), 28 queries .

Powered by Discuz! X3.4

Copyright © 2001-2020, Tencent Cloud.

快速回复 返回顶部 返回列表