找回密码
 立即注册

QQ登录

只需一步,快速开始

查看: 88|回复: 0

[动作片] 偷蒙拐骗 Bullet.Proof.2022.1080p.BluRay.x264.DTS-HD.MA.5.1-MT 11.42GB

[复制链接]

0

精华

0

好友

2

听众

新手上路

Rank: 2

蓝光币
5
发表于 2022-9-20 07:06:20 | 显示全部楼层 |阅读模式
[img][/img]

◎标  题 偷蒙拐骗
◎译  名 Death Pursuit
◎片  名 Bullet Proof
◎年  代 2022
◎产  地 加拿大
◎类  别 动作 / 惊悚
◎语  言 英语
◎IMDb评分 6.2/10 (99人评价)
◎IMDb链接 https://www.imdb.com/title/tt10198564/
◎豆瓣链接 https://movie.douban.com/subject/35712147/
◎导  演 James D. Clayton James D. Clayton
◎编  剧 Danny Mac Danny Mac
◎演  员 维尼·琼斯 Vinnie Jones
       格伦·恩尼斯 Glenn Ennis
◎简  介

  一个小偷从暴虐黑帮老大邓波儿的贩毒窝点偷了数百万现金后,在他逃跑的车里发现了一个偷渡者:邓波儿怀孕的妻子米娅。邓波儿不顾一切地要回他的钱和他未出生的儿子,派出一队杀手和赏金猎人把米娅和小偷带回来。速度、机智和瞄得准给了他们短暂的优势,但他们的运气能维持多久呢?
  1. Video
  2. ID                                       : 1
  3. Format                                   : AVC
  4. Format/Info                              : Advanced Video Codec
  5. Format profile                           : [email protected]
  6. Format settings                          : CABAC / 4 Ref Frames
  7. Format settings, CABAC                   : Yes
  8. Format settings, Reference frames        : 4 frames
  9. Codec ID                                 : V_MPEG4/ISO/AVC
  10. Duration                                 : 1 h 31 min
  11. Bit rate                                 : 14.3 Mb/s
  12. Width                                    : 1 920 pixels
  13. Height                                   : 960 pixels
  14. Display aspect ratio                     : 2.000
  15. Frame rate mode                          : Constant
  16. Frame rate                               : 23.976 (24000/1001/189150) FPS
  17. Color space                              : YUV
  18. Chroma subsampling                       : 4:2:0
  19. Bit depth                                : 8 bits
  20. Scan type                                : Progressive
  21. Bits/(Pixel*Frame)                       : 0.323
  22. Stream size                              : 9.13 GiB (80%)
  23. Writing library                          : x264 core 157 r2938 2b00a84 [email protected] Mod
  24. Encoding settings                        : cabac=1 / ref=4 / deblock=1:-3:-3 / analyse=0x3:0x133 / me=umh / subme=10 / psy=1 / psy_rd=1.05:0.00 / mixed_ref=1 / me_range=32 / chroma_me=1 / trellis=2 / 8x8dct=1 / cqm=0 / deadzone=21,11 / fast_pskip=0 / chroma_qp_offset=-2 / threads=12 / lookahead_threads=2 / sliced_threads=0 / nr=0 / decimate=0 / interlaced=0 / bluray_compat=0 / constrained_intra=0 / bframes=8 / b_pyramid=2 / b_adapt=2 / b_bias=0 / direct=3 / weightb=1 / open_gop=0 / weightp=2 / keyint=250 / keyint_min=24 / scenecut=40 / intra_refresh=0 / rc_lookahead=250 / rc=crf / mbtree=0 / crf=16.8 / qcomp=0.60 / qpmin=0 / qpmax=69 / qpstep=4 / vbv_maxrate=62500 / vbv_bufsize=78125 / crf_max=0.0 / nal_hrd=none / filler=0 / ip_ratio=1.30 / pb_ratio=1.20 / aq=3:0.80
  25. Language                                 : English
  26. Default                                  : Yes
  27. Forced                                   : No
  28. Color range                              : Limited
  29. Color primaries                          : BT.709
  30. Matrix coefficients                      : BT.709
  31. Audio
  32. ID                                       : 2
  33. Format                                   : DTS XLL
  34. Format/Info                              : Digital Theater Systems
  35. Commercial name                          : DTS-HD Master Audio
  36. Codec ID                                 : A_DTS
  37. Duration                                 : 1 h 31 min
  38. Bit rate mode                            : Variable
  39. Bit rate                                 : 3 561 kb/s
  40. Channel(s)                               : 6 channels
  41. Channel layout                           : C L R Ls Rs LFE
  42. Sampling rate                            : 48.0 kHz
  43. Frame rate                               : 93.750 FPS (512 SPF)
  44. Bit depth                                : 24 bits
  45. Compression mode                         : Lossless
  46. Stream size                              : 2.28 GiB (20%)
  47. Language                                 : English
  48. Default                                  : Yes
  49. Forced                                   : No
  50. Text #1
  51. ID                                       : 3
  52. Format                                   : UTF-8
  53. Codec ID                                 : S_TEXT/UTF8
  54. Codec ID/Info                            : UTF-8 Plain Text
  55. Duration                                 : 1 h 16 min
  56. Bit rate                                 : 32 b/s
  57. Frame rate                               : 0.130 FPS
  58. Count of elements                        : 597
  59. Stream size                              : 18.1 KiB (0%)
  60. Language                                 : English
  61. Default                                  : Yes
  62. Forced                                   : No
  63. Text #2
  64. ID                                       : 4
  65. Format                                   : UTF-8
  66. Codec ID                                 : S_TEXT/UTF8
  67. Codec ID/Info                            : UTF-8 Plain Text
  68. Duration                                 : 1 h 21 min
  69. Bit rate                                 : 36 b/s
  70. Frame rate                               : 0.163 FPS
  71. Count of elements                        : 801
  72. Stream size                              : 21.8 KiB (0%)
  73. Title                                    : SDH
  74. Language                                 : English
  75. Default                                  : No
  76. Forced                                   : No
  77. Text #3
  78. ID                                       : 5
  79. Format                                   : PGS
  80. Muxing mode                              : zlib
  81. Codec ID                                 : S_HDMV/PGS
  82. Codec ID/Info                            : Picture based subtitle format used on BDs/HD-DVDs
  83. Duration                                 : 1 h 21 min
  84. Bit rate                                 : 23.1 kb/s
  85. Frame rate                               : 0.329 FPS
  86. Count of elements                        : 1618
  87. Stream size                              : 13.5 MiB (0%)
  88. Language                                 : English
  89. Default                                  : No
  90. Forced                                   : No
  91. Menu
  92. 00:00:00.000                             : en:Chapter 01
  93. 00:09:40.205                             : en:Chapter 02
  94. 00:15:07.907                             : en:Chapter 03
  95. 00:23:59.438                             : en:Chapter 04
  96. 00:29:23.762                             : en:Chapter 05
  97. 00:40:28.885                             : en:Chapter 06
  98. 00:50:38.035                             : en:Chapter 07
  99. 00:57:43.460                             : en:Chapter 08
  100. 01:05:32.929                             : en:Chapter 09
  101. 01:11:35.416                             : en:Chapter 10
  102. 01:19:59.795                             : en:Chapter 11
  103. 01:24:13.048                             : en:Chapter 12
复制代码




                                       
                                       

                                       
                                       
                                       




Bullet.Proof.2022.1080p.BluRay.x264.DTS-HD.MA.5.1-MT.torrent (14.9 KB, 下载次数: 0)
回复

使用道具 举报

您需要登录后才可以回帖 登录 | 立即注册

本版积分规则

QQ|Archiver|手机版|小黑屋|蓝光电影网

GMT+8, 2022-12-1 22:19 , Processed in 0.053233 second(s), 28 queries .

Powered by Discuz! X3.4

Copyright © 2001-2020, Tencent Cloud.

快速回复 返回顶部 返回列表