找回密码
 立即注册

QQ登录

只需一步,快速开始

查看: 84|回复: 0

[剧情片] 大学航空炸弹客 Ted.K.2021.720p.BluRay.x264.DTS-MT 7.21GB

[复制链接]

0

精华

0

好友

2

听众

新手上路

Rank: 2

蓝光币
5
发表于 2022-5-16 06:56:22 | 显示全部楼层 |阅读模式


◎译  名 大学航空炸弹客
◎片  名 Ted K
◎年  代 2021
◎产  地 美国
◎类  别 剧情
◎语  言 英语
◎上映日期 2021-03(柏林电影节) / 2022-02-18(美国)
◎IMDb链接 https://www.imdb.com/title/tt8128276/
◎豆瓣评分 6.0/10 (373人评价)
◎豆瓣链接 https://movie.douban.com/subject/35370723/
◎片  长 120分钟
◎演  员 沙尔托·科普雷 Sharlto Copley (id:1036300)
       德鲁·鲍威尔 Drew Powell (id:1130053)
       特拉维斯·布鲁耶 Travis W Bruyer (id:1408279)
       帕塔诗·蓬西里 Potsy Ponciroli (id:1460990)
◎简  介

  入围第71届柏林电影节全景单元。                                    
                                Ted K takes a radical approach to addressing Unabomber Ted Kaczynski’s way of thinking. Using intense images and texts from Kaczynski’s pamphlets, the result is no conventional biopic but a meditative composition – and an emotional exploration of violence.
  1. Video
  2. ID                                       : 1
  3. Format                                   : AVC
  4. Format/Info                              : Advanced Video Codec
  5. Format profile                           : [email protected]
  6. Format settings                          : CABAC / 9 Ref Frames
  7. Format settings, CABAC                   : Yes
  8. Format settings, Reference frames        : 9 frames
  9. Codec ID                                 : V_MPEG4/ISO/AVC
  10. Duration                                 : 2 h 2 min
  11. Bit rate                                 : 6 895 kb/s
  12. Width                                    : 1 280 pixels
  13. Height                                   : 642 pixels
  14. Display aspect ratio                     : 1.994
  15. Frame rate mode                          : Constant
  16. Frame rate                               : 23.976 (24000/1001/189150) FPS
  17. Color space                              : YUV
  18. Chroma subsampling                       : 4:2:0
  19. Bit depth                                : 8 bits
  20. Scan type                                : Progressive
  21. Bits/(Pixel*Frame)                       : 0.350
  22. Stream size                              : 5.92 GiB (82%)
  23. Writing library                          : x264 core 157 r2938 2b00a84 [email protected] Mod
  24. Encoding settings                        : cabac=1 / ref=9 / deblock=1:-3:-3 / analyse=0x3:0x133 / me=umh / subme=10 / psy=1 / psy_rd=1.05:0.00 / mixed_ref=1 / me_range=32 / chroma_me=1 / trellis=2 / 8x8dct=1 / cqm=0 / deadzone=21,11 / fast_pskip=0 / chroma_qp_offset=-2 / threads=12 / lookahead_threads=2 / sliced_threads=0 / nr=0 / decimate=0 / interlaced=0 / bluray_compat=0 / constrained_intra=0 / bframes=8 / b_pyramid=2 / b_adapt=2 / b_bias=0 / direct=3 / weightb=1 / open_gop=0 / weightp=2 / keyint=250 / keyint_min=24 / scenecut=40 / intra_refresh=0 / rc_lookahead=250 / rc=crf / mbtree=0 / crf=16.8 / qcomp=0.60 / qpmin=0 / qpmax=69 / qpstep=4 / vbv_maxrate=62500 / vbv_bufsize=78125 / crf_max=0.0 / nal_hrd=none / filler=0 / ip_ratio=1.30 / pb_ratio=1.20 / aq=3:0.80
  25. Language                                 : English
  26. Default                                  : Yes
  27. Forced                                   : No
  28. Color range                              : Limited
  29. Color primaries                          : BT.709
  30. Matrix coefficients                      : BT.709
  31. Audio
  32. ID                                       : 2
  33. Format                                   : DTS
  34. Format/Info                              : Digital Theater Systems
  35. Codec ID                                 : A_DTS
  36. Duration                                 : 2 h 2 min
  37. Bit rate mode                            : Constant
  38. Bit rate                                 : 1 509 kb/s
  39. Channel(s)                               : 6 channels
  40. Channel layout                           : C L R Ls Rs LFE
  41. Sampling rate                            : 48.0 kHz
  42. Frame rate                               : 93.750 FPS (512 SPF)
  43. Bit depth                                : 24 bits
  44. Compression mode                         : Lossy
  45. Stream size                              : 1.29 GiB (18%)
  46. Language                                 : English
  47. Default                                  : Yes
  48. Forced                                   : No
  49. Text #1
  50. ID                                       : 3
  51. Format                                   : UTF-8
  52. Codec ID                                 : S_TEXT/UTF8
  53. Codec ID/Info                            : UTF-8 Plain Text
  54. Duration                                 : 2 h 1 min
  55. Bit rate                                 : 39 b/s
  56. Count of elements                        : 1059
  57. Stream size                              : 35.4 KiB (0%)
  58. Language                                 : English
  59. Default                                  : Yes
  60. Forced                                   : No
  61. Text #2
  62. ID                                       : 4
  63. Format                                   : UTF-8
  64. Codec ID                                 : S_TEXT/UTF8
  65. Codec ID/Info                            : UTF-8 Plain Text
  66. Duration                                 : 2 h 2 min
  67. Bit rate                                 : 44 b/s
  68. Count of elements                        : 1299
  69. Stream size                              : 40.0 KiB (0%)
  70. Title                                    : SDH
  71. Language                                 : English
  72. Default                                  : No
  73. Forced                                   : No
  74. Menu
  75. 00:00:00.000                             : en:Chapter 01
  76. 00:17:19.538                             : en:Chapter 02
  77. 00:35:35.216                             : en:Chapter 03
  78. 00:53:49.476                             : en:Chapter 04
  79. 01:10:18.631                             : en:Chapter 05
  80. 01:29:48.216                             : en:Chapter 06
  81. 01:43:59.900                             : en:Chapter 07
  82. 01:59:43.051                             : en:Chapter 08
复制代码







                                       
                                       

                                       
                                       
                                       




Ted.K.2021.720p.BluRay.x264.DTS-MT.torrent (18.63 KB, 下载次数: 0)
回复

使用道具 举报

您需要登录后才可以回帖 登录 | 立即注册

本版积分规则

QQ|Archiver|手机版|小黑屋|蓝光电影网

GMT+8, 2022-7-4 22:37 , Processed in 0.058204 second(s), 28 queries .

Powered by Discuz! X3.4

Copyright © 2001-2020, Tencent Cloud.

快速回复 返回顶部 返回列表