找回密码
 立即注册

QQ登录

只需一步,快速开始

查看: 63|回复: 0

[其他] 007之杀人执照 Licence.to.Kill.1989.2160p.WEB-DL.x265.10bit.SDR.DTS-HD.MA.5.1-NOGRP 23.03GB

[复制链接]

0

精华

0

好友

2

听众

新手上路

Rank: 2

蓝光币
5
发表于 5 天前 | 显示全部楼层 |阅读模式


◎译  名 007之杀人执照 / 铁金刚勇战杀人狂魔 / 致命执照
◎片  名 Licence to Kill
◎年  代 1989
◎产  地 英国 / 美国
◎类  别 动作 / 惊悚 / 冒险
◎语  言 英语 / 西班牙语
◎上映日期 1989-07-14
◎IMDb链接 https://www.imdb.com/title/tt0097742/
◎豆瓣评分 7.0/10 (8130人评价)
◎豆瓣链接 https://movie.douban.com/subject/1292754/
◎片  长 133 分钟
◎导  演 约翰·格兰 John Glen (id:1045308)
◎编  剧 迈克尔·G·威尔森 Michael G. Wilson (id:1301051)
       理查德·麦鲍姆 Richard Maibaum (id:1018729)
       伊恩·弗莱明 Ian Fleming (id:1056190)
◎演  员 提摩西·道尔顿 Timothy Dalton (id:1002699)
       凯莉·洛维 Carey Lowell (id:1004625)
       罗伯特·戴维 Robert Davi (id:1010551)
       塔丽萨·索托 Talisa Soto (id:1000071)
       本尼西奥·德尔·托罗 Benicio del Toro (id:1041005)
       安东尼·泽比 Anthony Zerbe (id:1048203)
       弗兰克·麦克雷 Frank McRae (id:1115949)
       大卫·海迪生 David Hedison (id:1048234)
       韦恩·牛顿 Wayne Newton (id:1136403)
       安东尼·斯塔尔克 Anthony Starke (id:1154462)
       埃沃雷特·麦克吉尔 Everett McGill (id:1027292)
       戴斯蒙德·莱维林 Desmond Llewelyn (id:1049891)
       小佩德罗·阿门达里斯 Pedro Armendáriz Jr. (id:1002848)
       罗伯特·布朗 Robert Brown (id:1075329)
       普瑞斯西拉·巴恩斯 Priscilla Barnes (id:1036520)
       唐·司徒奥德 Don Stroud (id:1050002)
       卡罗琳·布利斯 Caroline Bliss (id:1355168)
       田川洋行 Cary-Hiroyuki Tagawa (id:1149250)
       格兰德·L·布什 Grand L. Bush (id:1055297)
       Alejandro Bracho Alejandro Bracho (id:1078669)
       Guy De Saint Cyr Guy De Saint Cyr (id:1082082)
       拉斐尔·约翰逊 Rafer Johnson (id:1107592)
       黛安·赫苏 Diane Hsu (id:1106476)
       Christopher Neame Christopher Neame (id:1129674)
       Jeannine Bisignano Jeannine Bisignano (id:1062848)
       克劳迪奥·布鲁克 Claudio Brook (id:1076587)
       Jorge Russek Jorge Russek (id:1147373)
       Stuart Quan Stuart Quan (id:1145113)
       Teresa Blake Teresa Blake (id:1064739)
       胡安·佩莱兹 Juan Peláez (id:1136762)
       Edna Bolkan Edna Bolkan (id:1324204)
       杰夫·莫尔多万 Jeff Moldovan (id:1335925)
       Carl Ciarfalio Carl Ciarfalio (id:1069576)
       克里斯托弗·尼姆 Christopher Neame (id:1136388)
       迈克尔·G·威尔森 Michael G. Wilson (id:1301051)
       迈克尔·G·威尔森 Michael G. Wilson (id:1301051)
       艾伯特·R·布洛柯里 Albert R. Broccoli (id:1000627)
       迈克尔·凯曼 Michael Kamen (id:1000552)
       珍妮特·希尔森 Janet Hirshenson (id:1286699)
       迈克尔·福特 Michael Ford (id:1283972)
       Michael Lamont Michael Lamont (id:1289331)
       Tricia Cameron Tricia Cameron (id:1276507)
       内奥米·多恩 Naomi Donne (id:1282577)
       诺玛·韦伯 Norma Webb (id:1300554)
       塞巴斯蒂安·席尔瓦 Sebastián Silva (id:1297608)
       约翰·理查森 John Richardson (id:1295600)
       朱利安·帕里 Julian Parry (id:1294018)
◎简  介

  007邦德(提摩西?道尔顿 Timothy Dalton 饰)和好友赖特在南美洲追踪毒品大王桑切斯,不但被狡猾的桑切斯逃脱了,而且赖特还掉进了桑切斯的陷阱――一个鲨鱼池。虽然最终赖特保住了性命,但他却失去了一双腿。上司要求邦德停止追查,然而报仇心切的邦德执意要追查到底,被没收了他间谍独有的“杀人执照”。没了情报机关的支持,邦德决心一个人独干。                                    
                                当邦德赶往巴拿马的一家夜总会准备将在这里聚会的桑切斯逮捕归案时,被一名香港的特工抓住了并被送到到与英国情报机关接头的地方。狡猾的桑切斯对后派出武装人员将他们接头的地方炸毁了。幸亏邦德大难不死,他发誓一定要桑切斯血债血偿!
  1. Video
  2. ID                                       : 1
  3. Format                                   : HEVC
  4. Format/Info                              : High Efficiency Video Coding
  5. Format profile                           : Main [email protected]@High
  6. Codec ID                                 : V_MPEGH/ISO/HEVC
  7. Duration                                 : 2 h 13 min
  8. Bit rate                                 : 20.6 Mb/s
  9. Width                                    : 3 840 pixels
  10. Height                                   : 1 634 pixels
  11. Display aspect ratio                     : 2.35:1
  12. Frame rate mode                          : Constant
  13. Frame rate                               : 23.976 FPS
  14. Color space                              : YUV
  15. Chroma subsampling                       : 4:2:0
  16. Bit depth                                : 10 bits
  17. Bits/(Pixel*Frame)                       : 0.137
  18. Stream size                              : 19.1 GiB (83%)
  19. Default                                  : Yes
  20. Forced                                   : No
  21. Color range                              : Limited
  22. Color primaries                          : BT.709
  23. Transfer characteristics                 : BT.709
  24. Matrix coefficients                      : BT.709
  25. Audio #1
  26. ID                                       : 2
  27. Format                                   : DTS XLL
  28. Format/Info                              : Digital Theater Systems
  29. Commercial name                          : DTS-HD Master Audio
  30. Codec ID                                 : A_DTS
  31. Duration                                 : 2 h 13 min
  32. Bit rate mode                            : Variable
  33. Bit rate                                 : 3 780 kb/s
  34. Channel(s)                               : 6 channels
  35. Channel layout                           : C L R Ls Rs LFE
  36. Sampling rate                            : 48.0 kHz
  37. Frame rate                               : 93.750 FPS (512 SPF)
  38. Bit depth                                : 24 bits
  39. Compression mode                         : Lossless
  40. Stream size                              : 3.52 GiB (15%)
  41. Title                                    : DTS-HD MA 5.1
  42. Language                                 : English
  43. Default                                  : Yes
  44. Forced                                   : No
  45. Audio #2
  46. ID                                       : 3
  47. Format                                   : AC-3
  48. Format/Info                              : Audio Coding 3
  49. Commercial name                          : Dolby Digital
  50. Codec ID                                 : A_AC3
  51. Duration                                 : 2 h 13 min
  52. Bit rate mode                            : Constant
  53. Bit rate                                 : 384 kb/s
  54. Channel(s)                               : 6 channels
  55. Channel layout                           : L R C LFE Ls Rs
  56. Sampling rate                            : 48.0 kHz
  57. Frame rate                               : 31.250 FPS (1536 SPF)
  58. Compression mode                         : Lossy
  59. Stream size                              : 366 MiB (2%)
  60. Title                                    : British
  61. Language                                 : English
  62. Service kind                             : Complete Main
  63. Default                                  : No
  64. Forced                                   : No
  65. Text #1
  66. ID                                       : 4
  67. Format                                   : UTF-8
  68. Codec ID                                 : S_TEXT/UTF8
  69. Codec ID/Info                            : UTF-8 Plain Text
  70. Duration                                 : 2 h 12 min
  71. Bit rate                                 : 44 b/s
  72. Count of elements                        : 1342
  73. Stream size                              : 43.0 KiB (0%)
  74. Title                                    : English British (CC)
  75. Language                                 : English
  76. Default                                  : Yes
  77. Forced                                   : No
  78. Text #2
  79. ID                                       : 5
  80. Format                                   : UTF-8
  81. Codec ID                                 : S_TEXT/UTF8
  82. Codec ID/Info                            : UTF-8 Plain Text
  83. Duration                                 : 2 h 9 min
  84. Bit rate                                 : 40 b/s
  85. Count of elements                        : 1050
  86. Stream size                              : 38.1 KiB (0%)
  87. Title                                    : English
  88. Language                                 : English
  89. Default                                  : No
  90. Forced                                   : No
  91. Text #3
  92. ID                                       : 6
  93. Format                                   : UTF-8
  94. Codec ID                                 : S_TEXT/UTF8
  95. Codec ID/Info                            : UTF-8 Plain Text
  96. Duration                                 : 2 h 9 min
  97. Bit rate                                 : 55 b/s
  98. Count of elements                        : 1042
  99. Stream size                              : 52.6 KiB (0%)
  100. Title                                    : Arabic Saudi Arabia
  101. Language                                 : Arabic
  102. Default                                  : No
  103. Forced                                   : No
  104. Text #4
  105. ID                                       : 7
  106. Format                                   : UTF-8
  107. Codec ID                                 : S_TEXT/UTF8
  108. Codec ID/Info                            : UTF-8 Plain Text
  109. Duration                                 : 2 h 9 min
  110. Bit rate                                 : 51 b/s
  111. Count of elements                        : 770
  112. Stream size                              : 49.3 KiB (0%)
  113. Title                                    : Bulgarian
  114. Language                                 : Bulgarian
  115. Default                                  : No
  116. Forced                                   : No
  117. Text #5
  118. ID                                       : 8
  119. Format                                   : UTF-8
  120. Codec ID                                 : S_TEXT/UTF8
  121. Codec ID/Info                            : UTF-8 Plain Text
  122. Duration                                 : 2 h 9 min
  123. Bit rate                                 : 31 b/s
  124. Count of elements                        : 1073
  125. Stream size                              : 29.8 KiB (0%)
  126. Title                                    : Chinese Mandarin Chinese Traditional
  127. Language                                 : Chinese
  128. Default                                  : No
  129. Forced                                   : No
  130. Text #6
  131. ID                                       : 9
  132. Format                                   : UTF-8
  133. Codec ID                                 : S_TEXT/UTF8
  134. Codec ID/Info                            : UTF-8 Plain Text
  135. Duration                                 : 2 h 9 min
  136. Bit rate                                 : 37 b/s
  137. Count of elements                        : 888
  138. Stream size                              : 35.4 KiB (0%)
  139. Title                                    : Czech
  140. Language                                 : Czech
  141. Default                                  : No
  142. Forced                                   : No
  143. Text #7
  144. ID                                       : 10
  145. Format                                   : UTF-8
  146. Codec ID                                 : S_TEXT/UTF8
  147. Codec ID/Info                            : UTF-8 Plain Text
  148. Duration                                 : 2 h 9 min
  149. Bit rate                                 : 38 b/s
  150. Count of elements                        : 882
  151. Stream size                              : 36.3 KiB (0%)
  152. Title                                    : Danish
  153. Language                                 : Danish
  154. Default                                  : No
  155. Forced                                   : No
  156. Text #8
  157. ID                                       : 11
  158. Format                                   : UTF-8
  159. Codec ID                                 : S_TEXT/UTF8
  160. Codec ID/Info                            : UTF-8 Plain Text
  161. Duration                                 : 2 h 9 min
  162. Bit rate                                 : 40 b/s
  163. Count of elements                        : 882
  164. Stream size                              : 38.0 KiB (0%)
  165. Title                                    : German
  166. Language                                 : German
  167. Default                                  : No
  168. Forced                                   : No
  169. Text #9
  170. ID                                       : 12
  171. Format                                   : UTF-8
  172. Codec ID                                 : S_TEXT/UTF8
  173. Codec ID/Info                            : UTF-8 Plain Text
  174. Duration                                 : 2 h 9 min
  175. Bit rate                                 : 67 b/s
  176. Count of elements                        : 887
  177. Stream size                              : 64.4 KiB (0%)
  178. Title                                    : Greek
  179. Language                                 : Greek
  180. Default                                  : No
  181. Forced                                   : No
  182. Text #10
  183. ID                                       : 13
  184. Format                                   : UTF-8
  185. Codec ID                                 : S_TEXT/UTF8
  186. Codec ID/Info                            : UTF-8 Plain Text
  187. Duration                                 : 2 h 9 min
  188. Bit rate                                 : 36 b/s
  189. Count of elements                        : 886
  190. Stream size                              : 35.1 KiB (0%)
  191. Title                                    : Spanish European
  192. Language                                 : Spanish
  193. Default                                  : No
  194. Forced                                   : No
  195. Text #11
  196. ID                                       : 14
  197. Format                                   : UTF-8
  198. Codec ID                                 : S_TEXT/UTF8
  199. Codec ID/Info                            : UTF-8 Plain Text
  200. Duration                                 : 2 h 9 min
  201. Bit rate                                 : 35 b/s
  202. Count of elements                        : 885
  203. Stream size                              : 33.4 KiB (0%)
  204. Title                                    : Finnish
  205. Language                                 : Finnish
  206. Default                                  : No
  207. Forced                                   : No
  208. Text #12
  209. ID                                       : 15
  210. Format                                   : UTF-8
  211. Codec ID                                 : S_TEXT/UTF8
  212. Codec ID/Info                            : UTF-8 Plain Text
  213. Duration                                 : 2 h 12 min
  214. Bit rate                                 : 39 b/s
  215. Count of elements                        : 887
  216. Stream size                              : 38.5 KiB (0%)
  217. Title                                    : French European
  218. Language                                 : French
  219. Default                                  : No
  220. Forced                                   : No
  221. Text #13
  222. ID                                       : 16
  223. Format                                   : UTF-8
  224. Codec ID                                 : S_TEXT/UTF8
  225. Codec ID/Info                            : UTF-8 Plain Text
  226. Duration                                 : 2 h 9 min
  227. Bit rate                                 : 51 b/s
  228. Count of elements                        : 888
  229. Stream size                              : 48.8 KiB (0%)
  230. Title                                    : Hebrew
  231. Language                                 : Hebrew
  232. Default                                  : No
  233. Forced                                   : No
  234. Text #14
  235. ID                                       : 17
  236. Format                                   : UTF-8
  237. Codec ID                                 : S_TEXT/UTF8
  238. Codec ID/Info                            : UTF-8 Plain Text
  239. Duration                                 : 2 h 9 min
  240. Bit rate                                 : 33 b/s
  241. Count of elements                        : 997
  242. Stream size                              : 31.6 KiB (0%)
  243. Title                                    : Croatian
  244. Language                                 : Croatian
  245. Default                                  : No
  246. Forced                                   : No
  247. Text #15
  248. ID                                       : 18
  249. Format                                   : UTF-8
  250. Codec ID                                 : S_TEXT/UTF8
  251. Codec ID/Info                            : UTF-8 Plain Text
  252. Duration                                 : 2 h 9 min
  253. Bit rate                                 : 38 b/s
  254. Count of elements                        : 886
  255. Stream size                              : 36.7 KiB (0%)
  256. Title                                    : Hungarian
  257. Language                                 : Hungarian
  258. Default                                  : No
  259. Forced                                   : No
  260. Text #16
  261. ID                                       : 19
  262. Format                                   : UTF-8
  263. Codec ID                                 : S_TEXT/UTF8
  264. Codec ID/Info                            : UTF-8 Plain Text
  265. Duration                                 : 2 h 9 min
  266. Bit rate                                 : 36 b/s
  267. Count of elements                        : 793
  268. Stream size                              : 34.9 KiB (0%)
  269. Title                                    : Icelandic
  270. Language                                 : Icelandic
  271. Default                                  : No
  272. Forced                                   : No
  273. Text #17
  274. ID                                       : 20
  275. Format                                   : UTF-8
  276. Codec ID                                 : S_TEXT/UTF8
  277. Codec ID/Info                            : UTF-8 Plain Text
  278. Duration                                 : 2 h 9 min
  279. Bit rate                                 : 36 b/s
  280. Count of elements                        : 886
  281. Stream size                              : 35.0 KiB (0%)
  282. Title                                    : Italian
  283. Language                                 : Italian
  284. Default                                  : No
  285. Forced                                   : No
  286. Text #18
  287. ID                                       : 21
  288. Format                                   : UTF-8
  289. Codec ID                                 : S_TEXT/UTF8
  290. Codec ID/Info                            : UTF-8 Plain Text
  291. Duration                                 : 2 h 9 min
  292. Bit rate                                 : 28 b/s
  293. Count of elements                        : 984
  294. Stream size                              : 26.7 KiB (0%)
  295. Title                                    : Japanese
  296. Language                                 : Japanese
  297. Default                                  : No
  298. Forced                                   : No
  299. Text #19
  300. ID                                       : 22
  301. Format                                   : UTF-8
  302. Codec ID                                 : S_TEXT/UTF8
  303. Codec ID/Info                            : UTF-8 Plain Text
  304. Duration                                 : 2 h 9 min
  305. Bit rate                                 : 38 b/s
  306. Count of elements                        : 1073
  307. Stream size                              : 36.3 KiB (0%)
  308. Title                                    : Korean
  309. Language                                 : Korean
  310. Default                                  : No
  311. Forced                                   : No
  312. Text #20
  313. ID                                       : 23
  314. Format                                   : UTF-8
  315. Codec ID                                 : S_TEXT/UTF8
  316. Codec ID/Info                            : UTF-8 Plain Text
  317. Duration                                 : 2 h 9 min
  318. Bit rate                                 : 36 b/s
  319. Count of elements                        : 846
  320. Stream size                              : 34.9 KiB (0%)
  321. Title                                    : Dutch
  322. Language                                 : Dutch
  323. Default                                  : No
  324. Forced                                   : No
  325. Text #21
  326. ID                                       : 24
  327. Format                                   : UTF-8
  328. Codec ID                                 : S_TEXT/UTF8
  329. Codec ID/Info                            : UTF-8 Plain Text
  330. Duration                                 : 2 h 9 min
  331. Bit rate                                 : 38 b/s
  332. Count of elements                        : 885
  333. Stream size                              : 36.7 KiB (0%)
  334. Title                                    : Norwegian
  335. Language                                 : Norwegian
  336. Default                                  : No
  337. Forced                                   : No
  338. Text #22
  339. ID                                       : 25
  340. Format                                   : UTF-8
  341. Codec ID                                 : S_TEXT/UTF8
  342. Codec ID/Info                            : UTF-8 Plain Text
  343. Duration                                 : 2 h 12 min
  344. Bit rate                                 : 38 b/s
  345. Count of elements                        : 896
  346. Stream size                              : 37.8 KiB (0%)
  347. Title                                    : Polish
  348. Language                                 : Polish
  349. Default                                  : No
  350. Forced                                   : No
  351. Text #23
  352. ID                                       : 26
  353. Format                                   : UTF-8
  354. Codec ID                                 : S_TEXT/UTF8
  355. Codec ID/Info                            : UTF-8 Plain Text
  356. Duration                                 : 2 h 9 min
  357. Bit rate                                 : 40 b/s
  358. Count of elements                        : 887
  359. Stream size                              : 38.3 KiB (0%)
  360. Title                                    : Portuguese European
  361. Language                                 : Portuguese
  362. Default                                  : No
  363. Forced                                   : No
  364. Text #24
  365. ID                                       : 27
  366. Format                                   : UTF-8
  367. Codec ID                                 : S_TEXT/UTF8
  368. Codec ID/Info                            : UTF-8 Plain Text
  369. Duration                                 : 2 h 9 min
  370. Bit rate                                 : 37 b/s
  371. Count of elements                        : 792
  372. Stream size                              : 35.3 KiB (0%)
  373. Title                                    : Romanian
  374. Language                                 : Romanian
  375. Default                                  : No
  376. Forced                                   : No
  377. Text #25
  378. ID                                       : 28
  379. Format                                   : UTF-8
  380. Codec ID                                 : S_TEXT/UTF8
  381. Codec ID/Info                            : UTF-8 Plain Text
  382. Duration                                 : 2 h 9 min
  383. Bit rate                                 : 53 b/s
  384. Count of elements                        : 792
  385. Stream size                              : 50.4 KiB (0%)
  386. Title                                    : Russian
  387. Language                                 : Russian
  388. Default                                  : No
  389. Forced                                   : No
  390. Text #26
  391. ID                                       : 29
  392. Format                                   : UTF-8
  393. Codec ID                                 : S_TEXT/UTF8
  394. Codec ID/Info                            : UTF-8 Plain Text
  395. Duration                                 : 2 h 9 min
  396. Bit rate                                 : 32 b/s
  397. Count of elements                        : 1018
  398. Stream size                              : 30.8 KiB (0%)
  399. Title                                    : Slovenian Slovenia
  400. Language                                 : Slovenian
  401. Default                                  : No
  402. Forced                                   : No
  403. Text #27
  404. ID                                       : 30
  405. Format                                   : UTF-8
  406. Codec ID                                 : S_TEXT/UTF8
  407. Codec ID/Info                            : UTF-8 Plain Text
  408. Duration                                 : 2 h 9 min
  409. Bit rate                                 : 28 b/s
  410. Count of elements                        : 665
  411. Stream size                              : 27.0 KiB (0%)
  412. Title                                    : Swedish
  413. Language                                 : Swedish
  414. Default                                  : No
  415. Forced                                   : No
  416. Text #28
  417. ID                                       : 31
  418. Format                                   : UTF-8
  419. Codec ID                                 : S_TEXT/UTF8
  420. Codec ID/Info                            : UTF-8 Plain Text
  421. Duration                                 : 2 h 9 min
  422. Bit rate                                 : 76 b/s
  423. Count of elements                        : 1042
  424. Stream size                              : 72.8 KiB (0%)
  425. Title                                    : Thai
  426. Language                                 : Thai
  427. Default                                  : No
  428. Forced                                   : No
  429. Text #29
  430. ID                                       : 32
  431. Format                                   : UTF-8
  432. Codec ID                                 : S_TEXT/UTF8
  433. Codec ID/Info                            : UTF-8 Plain Text
  434. Duration                                 : 2 h 9 min
  435. Bit rate                                 : 39 b/s
  436. Count of elements                        : 887
  437. Stream size                              : 37.7 KiB (0%)
  438. Title                                    : Turkish
  439. Language                                 : Turkish
  440. Default                                  : No
  441. Forced                                   : No
  442. Text #30
  443. ID                                       : 33
  444. Format                                   : UTF-8
  445. Codec ID                                 : S_TEXT/UTF8
  446. Codec ID/Info                            : UTF-8 Plain Text
  447. Duration                                 : 2 h 9 min
  448. Bit rate                                 : 51 b/s
  449. Count of elements                        : 795
  450. Stream size                              : 49.3 KiB (0%)
  451. Title                                    : Ukrainian Ukraine
  452. Language                                 : Ukrainian
  453. Default                                  : No
  454. Forced                                   : No
  455. Text #31
  456. ID                                       : 34
  457. Format                                   : UTF-8
  458. Codec ID                                 : S_TEXT/UTF8
  459. Codec ID/Info                            : UTF-8 Plain Text
  460. Duration                                 : 2 h 9 min
  461. Bit rate                                 : 30 b/s
  462. Count of elements                        : 1042
  463. Stream size                              : 29.4 KiB (0%)
  464. Title                                    : Chinese Cantonese Traditional
  465. Language                                 : Chinese
  466. Default                                  : No
  467. Forced                                   : No
  468. Menu
  469. 00:00:00.000                             : en:Chapter 01
  470. 00:08:48.000                             : en:Chapter 02
  471. 00:14:19.000                             : en:Chapter 03
  472. 00:26:11.000                             : en:Chapter 04
  473. 00:33:02.000                             : en:Chapter 05
  474. 00:40:40.000                             : en:Chapter 06
  475. 00:49:27.000                             : en:Chapter 07
  476. 00:57:49.000                             : en:Chapter 08
  477. 01:04:01.000                             : en:Chapter 09
  478. 01:11:10.000                             : en:Chapter 10
  479. 01:18:27.000                             : en:Chapter 11
  480. 01:25:42.000                             : en:Chapter 12
  481. 01:32:35.000                             : en:Chapter 13
  482. 01:44:06.000                             : en:Chapter 14
  483. 01:56:05.000                             : en:Chapter 15
  484. 02:05:54.000                             : en:Chapter 16
复制代码





                                       
                                       

                                       
                                       
                                       




Licence.to.Kill.1989.2160p.WEB-DL.x265.10bit.SDR.DTS-HD.MA.5.1-NOGRP.torrent (29.44 KB, 下载次数: 4)
回复

使用道具 举报

您需要登录后才可以回帖 登录 | 立即注册

本版积分规则

QQ|Archiver|手机版|小黑屋|蓝光电影网

GMT+8, 2022-5-17 02:40 , Processed in 0.055388 second(s), 28 queries .

Powered by Discuz! X3.4

Copyright © 2001-2020, Tencent Cloud.

快速回复 返回顶部 返回列表