找回密码
 立即注册

QQ登录

只需一步,快速开始

查看: 65|回复: 0

[其他] 康斯坦丁:神秘之所 DC.Showcase.Constantine.The.House.of.Mystery.2022.2160p.iT.WEB-DL.x265.10bit.SDR.DD5.1-SMURF 6.48GB

[复制链接]

0

精华

0

好友

2

听众

新手上路

Rank: 2

蓝光币
5
发表于 5 天前 | 显示全部楼层 |阅读模式


◎译  名 康斯坦丁:神秘之所 / DC Showcase – Constantine: House of Mystery / DC展台:康斯坦丁
◎片  名 Constantine: House of Mystery
◎年  代 2022
◎产  地 美国
◎类  别 动画
◎语  言 英语
◎上映日期 2022-05-03(美国)
◎IMDb链接 https://www.imdb.com/title/tt18305072/
◎豆瓣链接 https://movie.douban.com/subject/35633926/
◎片  长 27分钟
◎导  演 马特·皮特斯 Matt Peters (id:1332849)
◎编  剧 厄尼·阿特巴克 Ernie Altbacker (id:1367847)
◎演  员 罗宾·阿特金·唐斯 Robin Atkin Downes (id:1316486)
◎简  介

  Occult detective John Constantine is trapped in the House of Mystery, a secret domain where none can escape from.
  1. Video
  2. ID                                       : 1
  3. Format                                   : HEVC
  4. Format/Info                              : High Efficiency Video Coding
  5. Format profile                           : Main [email protected]@High
  6. Codec ID                                 : V_MPEGH/ISO/HEVC
  7. Duration                                 : 1 h 16 min
  8. Bit rate                                 : 11.8 Mb/s
  9. Width                                    : 3 840 pixels
  10. Height                                   : 2 160 pixels
  11. Display aspect ratio                     : 16:9
  12. Frame rate mode                          : Constant
  13. Frame rate                               : 23.976 FPS
  14. Color space                              : YUV
  15. Chroma subsampling                       : 4:2:0
  16. Bit depth                                : 10 bits
  17. Bits/(Pixel*Frame)                       : 0.059
  18. Stream size                              : 6.28 GiB (97%)
  19. Language                                 : English
  20. Default                                  : Yes
  21. Forced                                   : No
  22. Color range                              : Limited
  23. Color primaries                          : BT.709
  24. Transfer characteristics                 : BT.709
  25. Matrix coefficients                      : BT.709

  26. Audio
  27. ID                                       : 2
  28. Format                                   : AC-3
  29. Format/Info                              : Audio Coding 3
  30. Commercial name                          : Dolby Digital
  31. Codec ID                                 : A_AC3
  32. Duration                                 : 1 h 16 min
  33. Bit rate mode                            : Constant
  34. Bit rate                                 : 384 kb/s
  35. Channel(s)                               : 6 channels
  36. Channel layout                           : L R C LFE Ls Rs
  37. Sampling rate                            : 48.0 kHz
  38. Frame rate                               : 31.250 FPS (1536 SPF)
  39. Compression mode                         : Lossy
  40. Stream size                              : 210 MiB (3%)
  41. Language                                 : English
  42. Service kind                             : Complete Main
  43. Default                                  : Yes
  44. Forced                                   : No

  45. Text #1
  46. ID                                       : 3
  47. Format                                   : UTF-8
  48. Codec ID                                 : S_TEXT/UTF8
  49. Codec ID/Info                            : UTF-8 Plain Text
  50. Duration                                 : 1 h 15 min
  51. Bit rate                                 : 39 b/s
  52. Count of elements                        : 816
  53. Stream size                              : 21.8 KiB (0%)
  54. Title                                    : Traditional
  55. Language                                 : Chinese
  56. Default                                  : No
  57. Forced                                   : No

  58. Text #2
  59. ID                                       : 4
  60. Format                                   : UTF-8
  61. Codec ID                                 : S_TEXT/UTF8
  62. Codec ID/Info                            : UTF-8 Plain Text
  63. Duration                                 : 1 h 15 min
  64. Bit rate                                 : 45 b/s
  65. Count of elements                        : 687
  66. Stream size                              : 25.3 KiB (0%)
  67. Language                                 : Danish
  68. Default                                  : No
  69. Forced                                   : No

  70. Text #3
  71. ID                                       : 5
  72. Format                                   : UTF-8
  73. Codec ID                                 : S_TEXT/UTF8
  74. Codec ID/Info                            : UTF-8 Plain Text
  75. Duration                                 : 1 h 15 min
  76. Bit rate                                 : 58 b/s
  77. Count of elements                        : 870
  78. Stream size                              : 32.1 KiB (0%)
  79. Title                                    : SDH
  80. Language                                 : German
  81. Default                                  : No
  82. Forced                                   : No

  83. Text #4
  84. ID                                       : 6
  85. Format                                   : UTF-8
  86. Codec ID                                 : S_TEXT/UTF8
  87. Codec ID/Info                            : UTF-8 Plain Text
  88. Duration                                 : 1 h 14 min
  89. Bit rate                                 : 49 b/s
  90. Count of elements                        : 837
  91. Stream size                              : 27.1 KiB (0%)
  92. Language                                 : English
  93. Default                                  : No
  94. Forced                                   : No

  95. Text #5
  96. ID                                       : 7
  97. Format                                   : UTF-8
  98. Codec ID                                 : S_TEXT/UTF8
  99. Codec ID/Info                            : UTF-8 Plain Text
  100. Duration                                 : 1 h 15 min
  101. Bit rate                                 : 57 b/s
  102. Count of elements                        : 1088
  103. Stream size                              : 32.0 KiB (0%)
  104. Title                                    : SDH
  105. Language                                 : English
  106. Default                                  : No
  107. Forced                                   : No

  108. Text #6
  109. ID                                       : 8
  110. Format                                   : UTF-8
  111. Codec ID                                 : S_TEXT/UTF8
  112. Codec ID/Info                            : UTF-8 Plain Text
  113. Duration                                 : 1 h 15 min
  114. Bit rate                                 : 50 b/s
  115. Count of elements                        : 751
  116. Stream size                              : 27.6 KiB (0%)
  117. Title                                    : Latin American
  118. Language                                 : Spanish
  119. Default                                  : No
  120. Forced                                   : No

  121. Text #7
  122. ID                                       : 9
  123. Format                                   : UTF-8
  124. Codec ID                                 : S_TEXT/UTF8
  125. Codec ID/Info                            : UTF-8 Plain Text
  126. Duration                                 : 1 h 15 min
  127. Bit rate                                 : 48 b/s
  128. Count of elements                        : 724
  129. Stream size                              : 26.8 KiB (0%)
  130. Language                                 : Finnish
  131. Default                                  : No
  132. Forced                                   : No

  133. Text #8
  134. ID                                       : 10
  135. Format                                   : UTF-8
  136. Codec ID                                 : S_TEXT/UTF8
  137. Codec ID/Info                            : UTF-8 Plain Text
  138. Duration                                 : 1 h 15 min
  139. Bit rate                                 : 59 b/s
  140. Count of elements                        : 784
  141. Stream size                              : 32.8 KiB (0%)
  142. Language                                 : French
  143. Default                                  : No
  144. Forced                                   : No

  145. Text #9
  146. ID                                       : 11
  147. Format                                   : UTF-8
  148. Codec ID                                 : S_TEXT/UTF8
  149. Codec ID/Info                            : UTF-8 Plain Text
  150. Duration                                 : 1 h 15 min
  151. Bit rate                                 : 75 b/s
  152. Count of elements                        : 816
  153. Stream size                              : 42.0 KiB (0%)
  154. Language                                 : Hebrew
  155. Default                                  : No
  156. Forced                                   : No

  157. Text #10
  158. ID                                       : 12
  159. Format                                   : UTF-8
  160. Codec ID                                 : S_TEXT/UTF8
  161. Codec ID/Info                            : UTF-8 Plain Text
  162. Duration                                 : 1 h 15 min
  163. Bit rate                                 : 51 b/s
  164. Count of elements                        : 746
  165. Stream size                              : 28.6 KiB (0%)
  166. Language                                 : Dutch
  167. Default                                  : No
  168. Forced                                   : No

  169. Text #11
  170. ID                                       : 13
  171. Format                                   : UTF-8
  172. Codec ID                                 : S_TEXT/UTF8
  173. Codec ID/Info                            : UTF-8 Plain Text
  174. Duration                                 : 1 h 15 min
  175. Bit rate                                 : 44 b/s
  176. Count of elements                        : 698
  177. Stream size                              : 24.5 KiB (0%)
  178. Language                                 : Norwegian
  179. Default                                  : No
  180. Forced                                   : No

  181. Text #12
  182. ID                                       : 14
  183. Format                                   : UTF-8
  184. Codec ID                                 : S_TEXT/UTF8
  185. Codec ID/Info                            : UTF-8 Plain Text
  186. Duration                                 : 1 h 15 min
  187. Bit rate                                 : 45 b/s
  188. Count of elements                        : 720
  189. Stream size                              : 25.1 KiB (0%)
  190. Title                                    : Brazilian
  191. Language                                 : Portuguese
  192. Default                                  : No
  193. Forced                                   : No

  194. Text #13
  195. ID                                       : 15
  196. Format                                   : UTF-8
  197. Codec ID                                 : S_TEXT/UTF8
  198. Codec ID/Info                            : UTF-8 Plain Text
  199. Duration                                 : 1 h 15 min
  200. Bit rate                                 : 46 b/s
  201. Count of elements                        : 712
  202. Stream size                              : 25.9 KiB (0%)
  203. Language                                 : Swedish
  204. Default                                  : No
  205. Forced                                   : No

  206. Menu
  207. 00:00:00.000                             : en:Chapter 1
  208. 00:04:40.572                             : en:Chapter 2
  209. 00:09:58.181                             : en:Chapter 3
  210. 00:15:03.278                             : en:Chapter 4
  211. 00:18:54.509                             : en:Chapter 5
  212. 00:24:48.279                             : en:Chapter 6
  213. 00:27:38.533                             : en:Chapter 7
  214. 00:32:20.774                             : en:Chapter 8
  215. 00:37:06.226                             : en:Chapter 9
  216. 00:44:52.400                             : en:Chapter 10
  217. 00:49:50.448                             : en:Chapter 11
  218. 00:53:39.844                             : en:Chapter 12
  219. 00:58:18.540                             : en:Chapter 13
  220. 01:02:25.829                             : en:Chapter 14
  221. 01:07:28.214                             : en:Chapter 15
  222. 01:12:00.862                             : en:Chapter 16
复制代码




                                       
                                       

                                       
                                       
                                       




康斯坦丁:神秘之所 DC.Showcase.Constantine.The.House.of.Mystery.2022.2160p.iT.WEB-DL.x265.10bit.SDR.DD5.1-SMURF 6.48GB

DC.Showcase.Constantine.The.House.of.Mystery.2022.2160p.iT.WEB-DL.x265.10bit.SDR.torrent

16.9 KB, 下载次数: 5, 下载积分: 蓝光币 -2

回复

使用道具 举报

您需要登录后才可以回帖 登录 | 立即注册

本版积分规则

QQ|Archiver|手机版|小黑屋|蓝光电影网

GMT+8, 2022-5-17 01:46 , Processed in 0.053430 second(s), 28 queries .

Powered by Discuz! X3.4

Copyright © 2001-2020, Tencent Cloud.

快速回复 返回顶部 返回列表