找回密码
 立即注册

QQ登录

只需一步,快速开始

查看: 43|回复: 0

[其他] 双重危机 Double.Jeopardy.1999.2160p.WEB-DL.x265.10bit.HDR.DTS-HD.MA.5.1-NOGRP 21.57GB

[复制链接]

0

精华

0

好友

2

听众

新手上路

Rank: 2

蓝光币
5
发表于 5 天前 | 显示全部楼层 |阅读模式


◎译  名 双重危机 / 致命追缉令 / 亡命追凶 / 双重阴谋 / 双重间谍
◎片  名 Double Jeopardy
◎年  代 1999
◎产  地 美国 / 德国 / 加拿大
◎类  别 剧情 / 悬疑 / 惊悚 / 犯罪
◎语  言 英语
◎上映日期 1999-09-21
◎IMDb链接 https://www.imdb.com/title/tt0150377/
◎豆瓣评分 7.2/10 (6986人评价)
◎豆瓣链接 https://movie.douban.com/subject/1292676/
◎片  长 105分钟
◎导  演 布鲁斯·贝尔斯福德 Bruce Beresford (id:1025303)
◎编  剧 大卫·韦斯伯格 David Weisberg (id:1356776)
       道格拉斯·库克 Douglas Cook (id:1356775)
       张策 Ce Zhang (id:1327864)
◎演  员 汤米·李·琼斯 Tommy Lee Jones (id:1047994)
       艾什莉·贾德 Ashley Judd (id:1000014)
       杰伊·布拉泽奥 Jay Brazeau (id:1078980)
       布鲁斯·格林伍德 Bruce Greenwood (id:1025206)
       约翰·麦克拉伦 John Maclaren (id:1122099)
       安娜贝丝·吉什 Annabeth Gish (id:1031928)
       布伦南·埃利奥特 Brennan Elliott (id:1325403)
       迈克尔·加斯顿 Michael Gaston (id:1091100)
       吉莲·芭伯 Gillian Barber (id:1032598)
       David Jacox David Jacox (id:1287526)
       贝齐·布兰特利 Betsy Brantley (id:1074472)
       罗马·玛菲娅 Roma Maffia (id:1018053)
       达文尼亚·麦克法登 Davenia McFadden (id:1116054)
       加布里埃尔·罗斯 Gabrielle Rose (id:1296049)
       丹尼尔·莱派恩 Daniel Lapaine (id:1313018)
       玛丽亚·埃雷拉 Maria Herrera (id:1055329)
       巴布斯丘拉 Babs Chula (id:1070391)
       恩卡·奥库玛 Enuka Okuma (id:1127886)
       David Fredericks David Fredericks (id:1342152)
       安娜·哈根 Anna Hagan (id:1095724)
       富尔·切切里 Fulvio Cecere (id:1079001)
       特雷西·维拉尔 Tracy Vilar (id:1000720)
       Addison Ridge Addison Ridge (id:1295650)
       因格里德·托伦斯 Ingrid Torrance (id:1156576)
       罗杰·R.克劳斯 Roger R. Cross (id:1055522)
       基冈·康纳·特雷西 Keegan Connor Tracy (id:1152919)
       Dave Hager Dave Hager (id:1100869)
       Austin B. Church Austin B. Church (id:1068418)
       米凯尔·珊农·詹金斯 Mykel Shannon Jenkins (id:1112395)
       Michelle Stafford Michelle Stafford (id:1154170)
       Lance Spellerberg Lance Spellerberg (id:1155103)
       乔治·图利亚托斯 George Touliatos (id:1151492)
       Brent Woolsey Brent Woolsey (id:1164745)
       斯宾塞·崔特·克拉克 Spencer Treat Clark (id:1027222)
       Tamer Riad Tamer Riad (id:1139243)
       Nicolas Roye Nicolas Roye (id:1144128)
       马克·华纳 Mark Warner (id:1300451)
       萨拉·芬兰 Sarah Finn (id:1283741)
       德博拉·阿奎拉 Deborah Aquila (id:1277347)
       Andrew Neskoromny Andrew Neskoromny (id:1293058)
       Elizabeth Wilcox Elizabeth Wilcox (id:1300902)
       Linda M. Bass Linda M. Bass (id:1278047)
       Ashlee Petersen Ashlee Petersen (id:1294375)
       Norma Hill-Patton Norma Hill-Patton (id:1286633)
       西德妮·科内尔 Cydney Cornell (id:1281289)
       约翰·布雷克 John Blake (id:1278750)
       Charles Porlier Charles Porlier (id:1294748)
       布拉德·库恩 Brad Kuehn (id:1289086)
◎简  介

  莉比(艾什莉·贾德 Ashley Judd 饰)和丈夫尼克(布鲁斯·格林伍德 Bruce Greenwood 饰)之间的感情十分要好,两人共同养育乖巧可爱的儿子马蒂(本杰明·韦弗 Benjamin Weaver 饰),幸福生活堪称典范。可是,在忽然之间,尼克神秘失踪留下大量血迹,莉比则沦为嫌犯最终锒铛入狱。莉比将马蒂托付给了好友安吉(安娜贝丝·吉什 Annabeth Gish 饰),自己则在狱友玛格丽特(罗马·玛菲娅 Roma Maffia 饰)和伊芙琳(达文尼亚·麦克法登 Davenia McFadden 饰)的帮助下为了洗清罪名而做着不断的努力。                                       
                                    一晃眼六年过去,塔维斯警官(汤米·李·琼斯 Tommy Lee Jones 饰)成为了获得了假释的莉比的监护人,而此时的莉比发现,尼克不仅没有死亡,甚至改头换面带着儿子和安吉过着隐姓埋名的生活。经历了双...
  1. Video
  2. ID                                       : 1
  3. Format                                   : HEVC
  4. Format/Info                              : High Efficiency Video Coding
  5. Format profile                           : Main [email protected]@High
  6. HDR format                               : SMPTE ST 2086, HDR10 compatible
  7. Codec ID                                 : V_MPEGH/ISO/HEVC
  8. Duration                                 : 1 h 45 min
  9. Bit rate                                 : 24.8 Mb/s
  10. Width                                    : 3 840 pixels
  11. Height                                   : 1 600 pixels
  12. Display aspect ratio                     : 2.40:1
  13. Frame rate mode                          : Constant
  14. Frame rate                               : 23.976 FPS
  15. Color space                              : YUV
  16. Chroma subsampling                       : 4:2:0 (Type 2)
  17. Bit depth                                : 10 bits
  18. Bits/(Pixel*Frame)                       : 0.168
  19. Stream size                              : 18.2 GiB (84%)
  20. Default                                  : Yes
  21. Forced                                   : No
  22. Color range                              : Limited
  23. Color primaries                          : BT.2020
  24. Transfer characteristics                 : PQ
  25. Matrix coefficients                      : BT.2020 non-constant
  26. Mastering display color primaries        : Display P3
  27. Mastering display luminance              : min: 0.0050 cd/m2, max: 1000 cd/m2
  28. Maximum Content Light Level              : 1123 cd/m2
  29. Maximum Frame-Average Light Level        : 177 cd/m2
  30. Audio #1
  31. ID                                       : 2
  32. Format                                   : DTS XLL
  33. Format/Info                              : Digital Theater Systems
  34. Commercial name                          : DTS-HD Master Audio
  35. Codec ID                                 : A_DTS
  36. Duration                                 : 1 h 45 min
  37. Bit rate mode                            : Variable
  38. Bit rate                                 : 4 188 kb/s
  39. Channel(s)                               : 6 channels
  40. Channel layout                           : C L R Ls Rs LFE
  41. Sampling rate                            : 48.0 kHz
  42. Frame rate                               : 93.750 FPS (512 SPF)
  43. Bit depth                                : 24 bits
  44. Compression mode                         : Lossless
  45. Delay relative to video                  : 2 s 100 ms
  46. Stream size                              : 3.08 GiB (14%)
  47. Title                                    : DTS-HD MA 5.1
  48. Language                                 : English
  49. Default                                  : Yes
  50. Forced                                   : No
  51. Audio #2
  52. ID                                       : 3
  53. Format                                   : AC-3
  54. Format/Info                              : Audio Coding 3
  55. Commercial name                          : Dolby Digital
  56. Codec ID                                 : A_AC3
  57. Duration                                 : 1 h 45 min
  58. Bit rate mode                            : Constant
  59. Bit rate                                 : 384 kb/s
  60. Channel(s)                               : 6 channels
  61. Channel layout                           : L R C LFE Ls Rs
  62. Sampling rate                            : 48.0 kHz
  63. Frame rate                               : 31.250 FPS (1536 SPF)
  64. Compression mode                         : Lossy
  65. Stream size                              : 289 MiB (1%)
  66. Language                                 : English
  67. Service kind                             : Complete Main
  68. Default                                  : No
  69. Forced                                   : No
  70. Text #1
  71. ID                                       : 4
  72. Format                                   : UTF-8
  73. Codec ID                                 : S_TEXT/UTF8
  74. Codec ID/Info                            : UTF-8 Plain Text
  75. Duration                                 : 1 h 38 min
  76. Bit rate                                 : 60 b/s
  77. Count of elements                        : 1248
  78. Stream size                              : 44.1 KiB (0%)
  79. Title                                    : English CC
  80. Language                                 : English
  81. Default                                  : Yes
  82. Forced                                   : No
  83. Text #2
  84. ID                                       : 5
  85. Format                                   : UTF-8
  86. Codec ID                                 : S_TEXT/UTF8
  87. Codec ID/Info                            : UTF-8 Plain Text
  88. Duration                                 : 1 h 38 min
  89. Bit rate                                 : 62 b/s
  90. Count of elements                        : 787
  91. Stream size                              : 45.2 KiB (0%)
  92. Title                                    : Arabic
  93. Language                                 : Arabic
  94. Default                                  : No
  95. Forced                                   : No
  96. Text #3
  97. ID                                       : 6
  98. Format                                   : UTF-8
  99. Codec ID                                 : S_TEXT/UTF8
  100. Codec ID/Info                            : UTF-8 Plain Text
  101. Duration                                 : 1 h 39 min
  102. Bit rate                                 : 63 b/s
  103. Count of elements                        : 738
  104. Stream size                              : 46.2 KiB (0%)
  105. Title                                    : Bulgarian
  106. Language                                 : Bulgarian
  107. Default                                  : No
  108. Forced                                   : No
  109. Text #4
  110. ID                                       : 7
  111. Format                                   : UTF-8
  112. Codec ID                                 : S_TEXT/UTF8
  113. Codec ID/Info                            : UTF-8 Plain Text
  114. Duration                                 : 1 h 38 min
  115. Bit rate                                 : 35 b/s
  116. Count of elements                        : 926
  117. Stream size                              : 25.8 KiB (0%)
  118. Title                                    : Chinese Mandarin Chinese Simplified
  119. Language                                 : Chinese
  120. Default                                  : No
  121. Forced                                   : No
  122. Text #5
  123. ID                                       : 8
  124. Format                                   : UTF-8
  125. Codec ID                                 : S_TEXT/UTF8
  126. Codec ID/Info                            : UTF-8 Plain Text
  127. Duration                                 : 1 h 38 min
  128. Bit rate                                 : 33 b/s
  129. Count of elements                        : 671
  130. Stream size                              : 24.1 KiB (0%)
  131. Title                                    : Chinese Mandarin Chinese Traditional
  132. Language                                 : Chinese
  133. Default                                  : No
  134. Forced                                   : No
  135. Text #6
  136. ID                                       : 9
  137. Format                                   : UTF-8
  138. Codec ID                                 : S_TEXT/UTF8
  139. Codec ID/Info                            : UTF-8 Plain Text
  140. Duration                                 : 1 h 38 min
  141. Bit rate                                 : 38 b/s
  142. Count of elements                        : 660
  143. Stream size                              : 27.5 KiB (0%)
  144. Title                                    : Danish
  145. Language                                 : Danish
  146. Default                                  : No
  147. Forced                                   : No
  148. Text #7
  149. ID                                       : 10
  150. Format                                   : UTF-8
  151. Codec ID                                 : S_TEXT/UTF8
  152. Codec ID/Info                            : UTF-8 Plain Text
  153. Duration                                 : 1 h 38 min
  154. Bit rate                                 : 42 b/s
  155. Count of elements                        : 802
  156. Stream size                              : 30.5 KiB (0%)
  157. Title                                    : German
  158. Language                                 : German
  159. Default                                  : No
  160. Forced                                   : No
  161. Text #8
  162. ID                                       : 11
  163. Format                                   : UTF-8
  164. Codec ID                                 : S_TEXT/UTF8
  165. Codec ID/Info                            : UTF-8 Plain Text
  166. Duration                                 : 1 h 38 min
  167. Bit rate                                 : 50 b/s
  168. Count of elements                        : 948
  169. Stream size                              : 36.6 KiB (0%)
  170. Title                                    : Spanish Latin American
  171. Language                                 : Spanish
  172. Default                                  : No
  173. Forced                                   : No
  174. Text #9
  175. ID                                       : 12
  176. Format                                   : UTF-8
  177. Codec ID                                 : S_TEXT/UTF8
  178. Codec ID/Info                            : UTF-8 Plain Text
  179. Duration                                 : 1 h 38 min
  180. Bit rate                                 : 38 b/s
  181. Count of elements                        : 794
  182. Stream size                              : 27.7 KiB (0%)
  183. Title                                    : Spanish European
  184. Language                                 : Spanish
  185. Default                                  : No
  186. Forced                                   : No
  187. Text #10
  188. ID                                       : 13
  189. Format                                   : UTF-8
  190. Codec ID                                 : S_TEXT/UTF8
  191. Codec ID/Info                            : UTF-8 Plain Text
  192. Duration                                 : 1 h 38 min
  193. Bit rate                                 : 41 b/s
  194. Count of elements                        : 668
  195. Stream size                              : 29.8 KiB (0%)
  196. Title                                    : Finnish
  197. Language                                 : Finnish
  198. Default                                  : No
  199. Forced                                   : No
  200. Text #11
  201. ID                                       : 14
  202. Format                                   : UTF-8
  203. Codec ID                                 : S_TEXT/UTF8
  204. Codec ID/Info                            : UTF-8 Plain Text
  205. Duration                                 : 1 h 38 min
  206. Bit rate                                 : 40 b/s
  207. Count of elements                        : 843
  208. Stream size                              : 29.5 KiB (0%)
  209. Title                                    : French European
  210. Language                                 : French
  211. Default                                  : No
  212. Forced                                   : No
  213. Text #12
  214. ID                                       : 15
  215. Format                                   : UTF-8
  216. Codec ID                                 : S_TEXT/UTF8
  217. Codec ID/Info                            : UTF-8 Plain Text
  218. Duration                                 : 1 h 38 min
  219. Bit rate                                 : 51 b/s
  220. Count of elements                        : 680
  221. Stream size                              : 37.4 KiB (0%)
  222. Title                                    : Hebrew
  223. Language                                 : Hebrew
  224. Default                                  : No
  225. Forced                                   : No
  226. Text #13
  227. ID                                       : 16
  228. Format                                   : UTF-8
  229. Codec ID                                 : S_TEXT/UTF8
  230. Codec ID/Info                            : UTF-8 Plain Text
  231. Duration                                 : 1 h 43 min
  232. Bit rate                                 : 46 b/s
  233. Count of elements                        : 1076
  234. Stream size                              : 35.7 KiB (0%)
  235. Title                                    : Italian
  236. Language                                 : Italian
  237. Default                                  : No
  238. Forced                                   : No
  239. Text #14
  240. ID                                       : 17
  241. Format                                   : UTF-8
  242. Codec ID                                 : S_TEXT/UTF8
  243. Codec ID/Info                            : UTF-8 Plain Text
  244. Duration                                 : 1 h 38 min
  245. Bit rate                                 : 56 b/s
  246. Count of elements                        : 1081
  247. Stream size                              : 40.5 KiB (0%)
  248. Title                                    : Latvian
  249. Language                                 : Latvian
  250. Default                                  : No
  251. Forced                                   : No
  252. Text #15
  253. ID                                       : 18
  254. Format                                   : UTF-8
  255. Codec ID                                 : S_TEXT/UTF8
  256. Codec ID/Info                            : UTF-8 Plain Text
  257. Duration                                 : 1 h 43 min
  258. Bit rate                                 : 33 b/s
  259. Count of elements                        : 644
  260. Stream size                              : 25.4 KiB (0%)
  261. Title                                    : Dutch
  262. Language                                 : Dutch
  263. Default                                  : No
  264. Forced                                   : No
  265. Text #16
  266. ID                                       : 19
  267. Format                                   : UTF-8
  268. Codec ID                                 : S_TEXT/UTF8
  269. Codec ID/Info                            : UTF-8 Plain Text
  270. Duration                                 : 1 h 38 min
  271. Bit rate                                 : 35 b/s
  272. Count of elements                        : 671
  273. Stream size                              : 25.7 KiB (0%)
  274. Title                                    : Norwegian
  275. Language                                 : Norwegian
  276. Default                                  : No
  277. Forced                                   : No
  278. Text #17
  279. ID                                       : 20
  280. Format                                   : UTF-8
  281. Codec ID                                 : S_TEXT/UTF8
  282. Codec ID/Info                            : UTF-8 Plain Text
  283. Duration                                 : 1 h 38 min
  284. Bit rate                                 : 49 b/s
  285. Count of elements                        : 1084
  286. Stream size                              : 36.0 KiB (0%)
  287. Title                                    : Polish
  288. Language                                 : Polish
  289. Default                                  : No
  290. Forced                                   : No
  291. Text #18
  292. ID                                       : 21
  293. Format                                   : UTF-8
  294. Codec ID                                 : S_TEXT/UTF8
  295. Codec ID/Info                            : UTF-8 Plain Text
  296. Duration                                 : 1 h 38 min
  297. Bit rate                                 : 43 b/s
  298. Count of elements                        : 923
  299. Stream size                              : 31.2 KiB (0%)
  300. Title                                    : Portuguese Brazilian
  301. Language                                 : Portuguese
  302. Default                                  : No
  303. Forced                                   : No
  304. Text #19
  305. ID                                       : 22
  306. Format                                   : UTF-8
  307. Codec ID                                 : S_TEXT/UTF8
  308. Codec ID/Info                            : UTF-8 Plain Text
  309. Duration                                 : 1 h 38 min
  310. Bit rate                                 : 41 b/s
  311. Count of elements                        : 714
  312. Stream size                              : 30.1 KiB (0%)
  313. Title                                    : Portuguese European
  314. Language                                 : Portuguese
  315. Default                                  : No
  316. Forced                                   : No
  317. Text #20
  318. ID                                       : 23
  319. Format                                   : UTF-8
  320. Codec ID                                 : S_TEXT/UTF8
  321. Codec ID/Info                            : UTF-8 Plain Text
  322. Duration                                 : 1 h 44 min
  323. Bit rate                                 : 78 b/s
  324. Count of elements                        : 1168
  325. Stream size                              : 59.5 KiB (0%)
  326. Title                                    : Russian
  327. Language                                 : Russian
  328. Default                                  : No
  329. Forced                                   : No
  330. Text #21
  331. ID                                       : 24
  332. Format                                   : UTF-8
  333. Codec ID                                 : S_TEXT/UTF8
  334. Codec ID/Info                            : UTF-8 Plain Text
  335. Duration                                 : 1 h 38 min
  336. Bit rate                                 : 36 b/s
  337. Count of elements                        : 668
  338. Stream size                              : 26.6 KiB (0%)
  339. Title                                    : Swedish
  340. Language                                 : Swedish
  341. Default                                  : No
  342. Forced                                   : No
  343. Text #22
  344. ID                                       : 25
  345. Format                                   : UTF-8
  346. Codec ID                                 : S_TEXT/UTF8
  347. Codec ID/Info                            : UTF-8 Plain Text
  348. Duration                                 : 1 h 43 min
  349. Bit rate                                 : 49 b/s
  350. Count of elements                        : 1114
  351. Stream size                              : 37.4 KiB (0%)
  352. Title                                    : Turkish
  353. Language                                 : Turkish
  354. Default                                  : No
  355. Forced                                   : No
  356. Menu
  357. 00:00:00.000                             : en:Chapter 01
  358. 00:06:32.475                             : en:Chapter 02
  359. 00:13:26.848                             : en:Chapter 03
  360. 00:20:52.252                             : en:Chapter 04
  361. 00:27:37.657                             : en:Chapter 05
  362. 00:32:31.993                             : en:Chapter 06
  363. 00:40:25.800                             : en:Chapter 07
  364. 00:46:15.775                             : en:Chapter 08
  365. 00:52:40.410                             : en:Chapter 09
  366. 00:58:47.402                             : en:Chapter 10
  367. 01:06:20.563                             : en:Chapter 11
  368. 01:15:24.190                             : en:Chapter 12
  369. 01:21:18.378                             : en:Chapter 13
  370. 01:29:09.849                             : en:Chapter 14
  371. 01:36:22.824                             : en:Chapter 15
  372. 01:40:31.990                             : en:Chapter 16
复制代码




                                       
                                       

                                       
                                       
                                       




Double.Jeopardy.1999.2160p.WEB-DL.x265.10bit.HDR.DTS-HD.MA.5.1-NOGRP.torrent (27.62 KB, 下载次数: 7)
回复

使用道具 举报

您需要登录后才可以回帖 登录 | 立即注册

本版积分规则

QQ|Archiver|手机版|小黑屋|蓝光电影网

GMT+8, 2022-5-17 01:52 , Processed in 0.055016 second(s), 28 queries .

Powered by Discuz! X3.4

Copyright © 2001-2020, Tencent Cloud.

快速回复 返回顶部 返回列表