找回密码
 立即注册

QQ登录

只需一步,快速开始

查看: 30|回复: 0

[其他] 双重危机 Double.Jeopardy.1999.2160p.WEB-DL.DTS-HD.MA.5.1.DV.MKV.x265-DVSUX 21.65GB

[复制链接]

0

精华

0

好友

2

听众

新手上路

Rank: 2

蓝光币
5
发表于 5 天前 | 显示全部楼层 |阅读模式


◎译  名 双重危机 / 致命追缉令 / 亡命追凶 / 双重阴谋 / 双重间谍
◎片  名 Double Jeopardy
◎年  代 1999
◎产  地 美国 / 德国 / 加拿大
◎类  别 剧情 / 悬疑 / 惊悚 / 犯罪
◎语  言 英语
◎上映日期 1999-09-21
◎IMDb链接 https://www.imdb.com/title/tt0150377/
◎豆瓣评分 7.2/10 (6986人评价)
◎豆瓣链接 https://movie.douban.com/subject/1292676/
◎片  长 105分钟
◎导  演 布鲁斯·贝尔斯福德 Bruce Beresford (id:1025303)
◎编  剧 大卫·韦斯伯格 David Weisberg (id:1356776)
       道格拉斯·库克 Douglas Cook (id:1356775)
       张策 Ce Zhang (id:1327864)
◎演  员 汤米·李·琼斯 Tommy Lee Jones (id:1047994)
       艾什莉·贾德 Ashley Judd (id:1000014)
       杰伊·布拉泽奥 Jay Brazeau (id:1078980)
       布鲁斯·格林伍德 Bruce Greenwood (id:1025206)
       约翰·麦克拉伦 John Maclaren (id:1122099)
       安娜贝丝·吉什 Annabeth Gish (id:1031928)
       布伦南·埃利奥特 Brennan Elliott (id:1325403)
       迈克尔·加斯顿 Michael Gaston (id:1091100)
       吉莲·芭伯 Gillian Barber (id:1032598)
       David Jacox David Jacox (id:1287526)
       贝齐·布兰特利 Betsy Brantley (id:1074472)
       罗马·玛菲娅 Roma Maffia (id:1018053)
       达文尼亚·麦克法登 Davenia McFadden (id:1116054)
       加布里埃尔·罗斯 Gabrielle Rose (id:1296049)
       丹尼尔·莱派恩 Daniel Lapaine (id:1313018)
       玛丽亚·埃雷拉 Maria Herrera (id:1055329)
       巴布斯丘拉 Babs Chula (id:1070391)
       恩卡·奥库玛 Enuka Okuma (id:1127886)
       David Fredericks David Fredericks (id:1342152)
       安娜·哈根 Anna Hagan (id:1095724)
       富尔·切切里 Fulvio Cecere (id:1079001)
       特雷西·维拉尔 Tracy Vilar (id:1000720)
       Addison Ridge Addison Ridge (id:1295650)
       因格里德·托伦斯 Ingrid Torrance (id:1156576)
       罗杰·R.克劳斯 Roger R. Cross (id:1055522)
       基冈·康纳·特雷西 Keegan Connor Tracy (id:1152919)
       Dave Hager Dave Hager (id:1100869)
       Austin B. Church Austin B. Church (id:1068418)
       米凯尔·珊农·詹金斯 Mykel Shannon Jenkins (id:1112395)
       Michelle Stafford Michelle Stafford (id:1154170)
       Lance Spellerberg Lance Spellerberg (id:1155103)
       乔治·图利亚托斯 George Touliatos (id:1151492)
       Brent Woolsey Brent Woolsey (id:1164745)
       斯宾塞·崔特·克拉克 Spencer Treat Clark (id:1027222)
       Tamer Riad Tamer Riad (id:1139243)
       Nicolas Roye Nicolas Roye (id:1144128)
       马克·华纳 Mark Warner (id:1300451)
       萨拉·芬兰 Sarah Finn (id:1283741)
       德博拉·阿奎拉 Deborah Aquila (id:1277347)
       Andrew Neskoromny Andrew Neskoromny (id:1293058)
       Elizabeth Wilcox Elizabeth Wilcox (id:1300902)
       Linda M. Bass Linda M. Bass (id:1278047)
       Ashlee Petersen Ashlee Petersen (id:1294375)
       Norma Hill-Patton Norma Hill-Patton (id:1286633)
       西德妮·科内尔 Cydney Cornell (id:1281289)
       约翰·布雷克 John Blake (id:1278750)
       Charles Porlier Charles Porlier (id:1294748)
       布拉德·库恩 Brad Kuehn (id:1289086)
◎简  介

  莉比(艾什莉·贾德 Ashley Judd 饰)和丈夫尼克(布鲁斯·格林伍德 Bruce Greenwood 饰)之间的感情十分要好,两人共同养育乖巧可爱的儿子马蒂(本杰明·韦弗 Benjamin Weaver 饰),幸福生活堪称典范。可是,在忽然之间,尼克神秘失踪留下大量血迹,莉比则沦为嫌犯最终锒铛入狱。莉比将马蒂托付给了好友安吉(安娜贝丝·吉什 Annabeth Gish 饰),自己则在狱友玛格丽特(罗马·玛菲娅 Roma Maffia 饰)和伊芙琳(达文尼亚·麦克法登 Davenia McFadden 饰)的帮助下为了洗清罪名而做着不断的努力。                                       
                                    一晃眼六年过去,塔维斯警官(汤米·李·琼斯 Tommy Lee Jones 饰)成为了获得了假释的莉比的监护人,而此时的莉比发现,尼克不仅没有死亡,甚至改头换面带着儿子和安吉过着隐姓埋名的生活。经历了双...
  1. Video
  2. ID                                       : 1
  3. Format                                   : HEVC
  4. Format/Info                              : High Efficiency Video Coding
  5. Format profile                           : Main [email protected]@High
  6. HDR format                               : Dolby Vision, Version 1.0, dvhe.05.06, BL+RPU
  7. Codec ID                                 : V_MPEGH/ISO/HEVC
  8. Duration                                 : 1 h 45 min
  9. Bit rate                                 : 24.9 Mb/s
  10. Width                                    : 3 840 pixels
  11. Height                                   : 1 600 pixels
  12. Display aspect ratio                     : 2.40:1
  13. Frame rate mode                          : Constant
  14. Frame rate                               : 23.976 (24000/1001/189150) FPS
  15. Color space                              : YUV
  16. Chroma subsampling                       : 4:2:0
  17. Bit depth                                : 10 bits
  18. Bits/(Pixel*Frame)                       : 0.169
  19. Stream size                              : 18.3 GiB (84%)
  20. Default                                  : Yes
  21. Forced                                   : No
  22. Audio #1
  23. ID                                       : 2
  24. Format                                   : DTS XLL
  25. Format/Info                              : Digital Theater Systems
  26. Commercial name                          : DTS-HD Master Audio
  27. Codec ID                                 : A_DTS
  28. Duration                                 : 1 h 45 min
  29. Bit rate mode                            : Variable
  30. Bit rate                                 : 4 188 kb/s
  31. Channel(s)                               : 6 channels
  32. Channel layout                           : C L R Ls Rs LFE
  33. Sampling rate                            : 48.0 kHz
  34. Frame rate                               : 93.750 FPS (512 SPF)
  35. Bit depth                                : 24 bits
  36. Compression mode                         : Lossless
  37. Delay relative to video                  : 2 s 100 ms
  38. Stream size                              : 3.08 GiB (14%)
  39. Title                                    : DTS-HD MA 5.1
  40. Language                                 : English
  41. Default                                  : Yes
  42. Forced                                   : No
  43. Audio #2
  44. ID                                       : 3
  45. Format                                   : AC-3
  46. Format/Info                              : Audio Coding 3
  47. Commercial name                          : Dolby Digital
  48. Codec ID                                 : A_AC3
  49. Duration                                 : 1 h 45 min
  50. Bit rate mode                            : Constant
  51. Bit rate                                 : 384 kb/s
  52. Channel(s)                               : 6 channels
  53. Channel layout                           : L R C LFE Ls Rs
  54. Sampling rate                            : 48.0 kHz
  55. Frame rate                               : 31.250 FPS (1536 SPF)
  56. Compression mode                         : Lossy
  57. Stream size                              : 289 MiB (1%)
  58. Language                                 : English
  59. Service kind                             : Complete Main
  60. Default                                  : Yes
  61. Forced                                   : No
  62. Text #1
  63. ID                                       : 4
  64. Format                                   : UTF-8
  65. Codec ID                                 : S_TEXT/UTF8
  66. Codec ID/Info                            : UTF-8 Plain Text
  67. Duration                                 : 1 h 38 min
  68. Bit rate                                 : 60 b/s
  69. Count of elements                        : 1248
  70. Stream size                              : 44.1 KiB (0%)
  71. Title                                    : English CC
  72. Language                                 : English
  73. Default                                  : Yes
  74. Forced                                   : No
  75. Text #2
  76. ID                                       : 5
  77. Format                                   : UTF-8
  78. Codec ID                                 : S_TEXT/UTF8
  79. Codec ID/Info                            : UTF-8 Plain Text
  80. Duration                                 : 1 h 38 min
  81. Bit rate                                 : 62 b/s
  82. Count of elements                        : 787
  83. Stream size                              : 45.2 KiB (0%)
  84. Title                                    : Arabic
  85. Language                                 : Arabic
  86. Default                                  : No
  87. Forced                                   : No
  88. Text #3
  89. ID                                       : 6
  90. Format                                   : UTF-8
  91. Codec ID                                 : S_TEXT/UTF8
  92. Codec ID/Info                            : UTF-8 Plain Text
  93. Duration                                 : 1 h 39 min
  94. Bit rate                                 : 63 b/s
  95. Count of elements                        : 738
  96. Stream size                              : 46.2 KiB (0%)
  97. Title                                    : Bulgarian
  98. Language                                 : Bulgarian
  99. Default                                  : No
  100. Forced                                   : No
  101. Text #4
  102. ID                                       : 7
  103. Format                                   : UTF-8
  104. Codec ID                                 : S_TEXT/UTF8
  105. Codec ID/Info                            : UTF-8 Plain Text
  106. Duration                                 : 1 h 38 min
  107. Bit rate                                 : 35 b/s
  108. Count of elements                        : 926
  109. Stream size                              : 25.8 KiB (0%)
  110. Title                                    : Chinese Mandarin Chinese Simplified
  111. Language                                 : Chinese
  112. Default                                  : No
  113. Forced                                   : No
  114. Text #5
  115. ID                                       : 8
  116. Format                                   : UTF-8
  117. Codec ID                                 : S_TEXT/UTF8
  118. Codec ID/Info                            : UTF-8 Plain Text
  119. Duration                                 : 1 h 38 min
  120. Bit rate                                 : 33 b/s
  121. Count of elements                        : 671
  122. Stream size                              : 24.1 KiB (0%)
  123. Title                                    : Chinese Mandarin Chinese Traditional
  124. Language                                 : Chinese
  125. Default                                  : No
  126. Forced                                   : No
  127. Text #6
  128. ID                                       : 9
  129. Format                                   : UTF-8
  130. Codec ID                                 : S_TEXT/UTF8
  131. Codec ID/Info                            : UTF-8 Plain Text
  132. Duration                                 : 1 h 38 min
  133. Bit rate                                 : 38 b/s
  134. Count of elements                        : 660
  135. Stream size                              : 27.5 KiB (0%)
  136. Title                                    : Danish
  137. Language                                 : Danish
  138. Default                                  : No
  139. Forced                                   : No
  140. Text #7
  141. ID                                       : 10
  142. Format                                   : UTF-8
  143. Codec ID                                 : S_TEXT/UTF8
  144. Codec ID/Info                            : UTF-8 Plain Text
  145. Duration                                 : 1 h 38 min
  146. Bit rate                                 : 42 b/s
  147. Count of elements                        : 802
  148. Stream size                              : 30.5 KiB (0%)
  149. Title                                    : German
  150. Language                                 : German
  151. Default                                  : No
  152. Forced                                   : No
  153. Text #8
  154. ID                                       : 11
  155. Format                                   : UTF-8
  156. Codec ID                                 : S_TEXT/UTF8
  157. Codec ID/Info                            : UTF-8 Plain Text
  158. Duration                                 : 1 h 38 min
  159. Bit rate                                 : 50 b/s
  160. Count of elements                        : 948
  161. Stream size                              : 36.6 KiB (0%)
  162. Title                                    : Spanish Latin American
  163. Language                                 : Spanish
  164. Default                                  : No
  165. Forced                                   : No
  166. Text #9
  167. ID                                       : 12
  168. Format                                   : UTF-8
  169. Codec ID                                 : S_TEXT/UTF8
  170. Codec ID/Info                            : UTF-8 Plain Text
  171. Duration                                 : 1 h 38 min
  172. Bit rate                                 : 38 b/s
  173. Count of elements                        : 794
  174. Stream size                              : 27.7 KiB (0%)
  175. Title                                    : Spanish European
  176. Language                                 : Spanish
  177. Default                                  : No
  178. Forced                                   : No
  179. Text #10
  180. ID                                       : 13
  181. Format                                   : UTF-8
  182. Codec ID                                 : S_TEXT/UTF8
  183. Codec ID/Info                            : UTF-8 Plain Text
  184. Duration                                 : 1 h 38 min
  185. Bit rate                                 : 41 b/s
  186. Count of elements                        : 668
  187. Stream size                              : 29.8 KiB (0%)
  188. Title                                    : Finnish
  189. Language                                 : Finnish
  190. Default                                  : No
  191. Forced                                   : No
  192. Text #11
  193. ID                                       : 14
  194. Format                                   : UTF-8
  195. Codec ID                                 : S_TEXT/UTF8
  196. Codec ID/Info                            : UTF-8 Plain Text
  197. Duration                                 : 1 h 38 min
  198. Bit rate                                 : 40 b/s
  199. Count of elements                        : 843
  200. Stream size                              : 29.5 KiB (0%)
  201. Title                                    : French European
  202. Language                                 : French
  203. Default                                  : No
  204. Forced                                   : No
  205. Text #12
  206. ID                                       : 15
  207. Format                                   : UTF-8
  208. Codec ID                                 : S_TEXT/UTF8
  209. Codec ID/Info                            : UTF-8 Plain Text
  210. Duration                                 : 1 h 38 min
  211. Bit rate                                 : 51 b/s
  212. Count of elements                        : 680
  213. Stream size                              : 37.4 KiB (0%)
  214. Title                                    : Hebrew
  215. Language                                 : Hebrew
  216. Default                                  : No
  217. Forced                                   : No
  218. Text #13
  219. ID                                       : 16
  220. Format                                   : UTF-8
  221. Codec ID                                 : S_TEXT/UTF8
  222. Codec ID/Info                            : UTF-8 Plain Text
  223. Duration                                 : 1 h 43 min
  224. Bit rate                                 : 46 b/s
  225. Count of elements                        : 1076
  226. Stream size                              : 35.7 KiB (0%)
  227. Title                                    : Italian
  228. Language                                 : Italian
  229. Default                                  : No
  230. Forced                                   : No
  231. Text #14
  232. ID                                       : 17
  233. Format                                   : UTF-8
  234. Codec ID                                 : S_TEXT/UTF8
  235. Codec ID/Info                            : UTF-8 Plain Text
  236. Duration                                 : 1 h 38 min
  237. Bit rate                                 : 56 b/s
  238. Count of elements                        : 1081
  239. Stream size                              : 40.5 KiB (0%)
  240. Title                                    : Latvian
  241. Language                                 : Latvian
  242. Default                                  : No
  243. Forced                                   : No
  244. Text #15
  245. ID                                       : 18
  246. Format                                   : UTF-8
  247. Codec ID                                 : S_TEXT/UTF8
  248. Codec ID/Info                            : UTF-8 Plain Text
  249. Duration                                 : 1 h 43 min
  250. Bit rate                                 : 33 b/s
  251. Count of elements                        : 644
  252. Stream size                              : 25.4 KiB (0%)
  253. Title                                    : Dutch
  254. Language                                 : Dutch
  255. Default                                  : No
  256. Forced                                   : No
  257. Text #16
  258. ID                                       : 19
  259. Format                                   : UTF-8
  260. Codec ID                                 : S_TEXT/UTF8
  261. Codec ID/Info                            : UTF-8 Plain Text
  262. Duration                                 : 1 h 38 min
  263. Bit rate                                 : 35 b/s
  264. Count of elements                        : 671
  265. Stream size                              : 25.7 KiB (0%)
  266. Title                                    : Norwegian
  267. Language                                 : Norwegian
  268. Default                                  : No
  269. Forced                                   : No
  270. Text #17
  271. ID                                       : 20
  272. Format                                   : UTF-8
  273. Codec ID                                 : S_TEXT/UTF8
  274. Codec ID/Info                            : UTF-8 Plain Text
  275. Duration                                 : 1 h 38 min
  276. Bit rate                                 : 49 b/s
  277. Count of elements                        : 1084
  278. Stream size                              : 36.0 KiB (0%)
  279. Title                                    : Polish
  280. Language                                 : Polish
  281. Default                                  : No
  282. Forced                                   : No
  283. Text #18
  284. ID                                       : 21
  285. Format                                   : UTF-8
  286. Codec ID                                 : S_TEXT/UTF8
  287. Codec ID/Info                            : UTF-8 Plain Text
  288. Duration                                 : 1 h 38 min
  289. Bit rate                                 : 43 b/s
  290. Count of elements                        : 923
  291. Stream size                              : 31.2 KiB (0%)
  292. Title                                    : Portuguese Brazilian
  293. Language                                 : Portuguese
  294. Default                                  : No
  295. Forced                                   : No
  296. Text #19
  297. ID                                       : 22
  298. Format                                   : UTF-8
  299. Codec ID                                 : S_TEXT/UTF8
  300. Codec ID/Info                            : UTF-8 Plain Text
  301. Duration                                 : 1 h 38 min
  302. Bit rate                                 : 41 b/s
  303. Count of elements                        : 714
  304. Stream size                              : 30.1 KiB (0%)
  305. Title                                    : Portuguese European
  306. Language                                 : Portuguese
  307. Default                                  : No
  308. Forced                                   : No
  309. Text #20
  310. ID                                       : 23
  311. Format                                   : UTF-8
  312. Codec ID                                 : S_TEXT/UTF8
  313. Codec ID/Info                            : UTF-8 Plain Text
  314. Duration                                 : 1 h 44 min
  315. Bit rate                                 : 78 b/s
  316. Count of elements                        : 1168
  317. Stream size                              : 59.5 KiB (0%)
  318. Title                                    : Russian
  319. Language                                 : Russian
  320. Default                                  : No
  321. Forced                                   : No
  322. Text #21
  323. ID                                       : 24
  324. Format                                   : UTF-8
  325. Codec ID                                 : S_TEXT/UTF8
  326. Codec ID/Info                            : UTF-8 Plain Text
  327. Duration                                 : 1 h 38 min
  328. Bit rate                                 : 36 b/s
  329. Count of elements                        : 668
  330. Stream size                              : 26.6 KiB (0%)
  331. Title                                    : Swedish
  332. Language                                 : Swedish
  333. Default                                  : No
  334. Forced                                   : No
  335. Text #22
  336. ID                                       : 25
  337. Format                                   : UTF-8
  338. Codec ID                                 : S_TEXT/UTF8
  339. Codec ID/Info                            : UTF-8 Plain Text
  340. Duration                                 : 1 h 43 min
  341. Bit rate                                 : 49 b/s
  342. Count of elements                        : 1114
  343. Stream size                              : 37.4 KiB (0%)
  344. Title                                    : Turkish
  345. Language                                 : Turkish
  346. Default                                  : No
  347. Forced                                   : No
  348. Menu
  349. 00:00:00.000                             : en:Chapter 01
  350. 00:06:32.475                             : en:Chapter 02
  351. 00:13:26.848                             : en:Chapter 03
  352. 00:20:52.252                             : en:Chapter 04
  353. 00:27:37.657                             : en:Chapter 05
  354. 00:32:31.993                             : en:Chapter 06
  355. 00:40:25.800                             : en:Chapter 07
  356. 00:46:15.775                             : en:Chapter 08
  357. 00:52:40.410                             : en:Chapter 09
  358. 00:58:47.402                             : en:Chapter 10
  359. 01:06:20.563                             : en:Chapter 11
  360. 01:15:24.190                             : en:Chapter 12
  361. 01:21:18.378                             : en:Chapter 13
  362. 01:29:09.849                             : en:Chapter 14
  363. 01:36:22.824                             : en:Chapter 15
  364. 01:40:31.990                             : en:Chapter 16
复制代码




                                       
                                       

                                       
                                       
                                       




Double.Jeopardy.1999.2160p.WEB-DL.DTS-HD.MA.5.1.DV.MKV.x265-DVSUX.torrent (27.72 KB, 下载次数: 0)
回复

使用道具 举报

您需要登录后才可以回帖 登录 | 立即注册

本版积分规则

QQ|Archiver|手机版|小黑屋|蓝光电影网

GMT+8, 2022-5-17 03:46 , Processed in 0.052609 second(s), 26 queries .

Powered by Discuz! X3.4

Copyright © 2001-2020, Tencent Cloud.

快速回复 返回顶部 返回列表