找回密码
 立即注册

QQ登录

只需一步,快速开始

查看: 29|回复: 0

[其他] 怪尸案 The.Trouble.with.Harry.1955.2160p.BluRay.x264.8bit.SDR.DTS-HD.MA.2.0-SWTYBLZ 48.38GB

[复制链接]

0

精华

0

好友

2

听众

新手上路

Rank: 2

蓝光币
5
发表于 6 天前 | 显示全部楼层 |阅读模式


◎译  名 怪尸案 / 哈里的麻烦 / 哈里的纠纷 / 怪尸记
◎片  名 The Trouble with Harry
◎年  代 1955
◎产  地 美国
◎类  别 喜剧 / 悬疑
◎语  言 英语
◎上映日期 1955-10-03(美国)
◎IMDb链接 https://www.imdb.com/title/tt0048750/
◎豆瓣评分 7.5/10 (16484人评价)
◎豆瓣链接 https://movie.douban.com/subject/1301232/
◎片  长 99 分钟
◎导  演 阿尔弗雷德·希区柯克 Alfred Hitchcock (id:1025185)
◎编  剧 约翰·迈克尔·海耶斯 John Michael Hayes (id:1045560)
       Jack Trevor Story Jack Trevor Story (id:1002100)
◎演  员 埃德蒙·戈温 Edmund Gwenn (id:1027991)
       约翰·福赛思 John Forsythe (id:1004719)
       米尔翠德·纳特威克 Mildred Natwick (id:1133620)
       米尔德丽德·丹诺克 Mildred Dunnock (id:1084508)
       罗亚尔·达诺 Royal Dano (id:1090287)
       德怀特·马费尔德 Dwight Marfield (id:1124225)
       雪莉·麦克雷恩 Shirley MacLaine (id:1048130)
       阿尔弗雷德·希区柯克 Alfred Hitchcock (id:1025185)
       Jerry Mathers Jerry Mathers (id:1115406)
       Parker Fennelly Parker Fennelly (id:1081773)
       Barry Macollum Barry Macollum (id:1119886)
       Philip Truex Philip Truex (id:1156877)
       阿尔弗雷德·希区柯克 Alfred Hitchcock (id:1025185)
       赫伯特·科尔曼 Herbert Coleman (id:1038416)
       伯纳德·荷曼 Bernard Herrmann (id:1012539)
       罗伯特·伯克斯 Robert Burks (id:1010111)
       阿尔玛·马克罗里 Alma Macrorie (id:1038892)
       哈尔·佩雷拉 Hal Pereira (id:1054359)
       萨姆·库默 Sam Comer (id:1077404)
       埃米尔·库里 Emile Kuri (id:1020114)
       约翰·B·古德曼 John B. Goodman (id:1025609)
       伊迪丝·海德 Edith Head (id:1041085)
       沃利·韦斯特摩 Wally Westmore (id:1161458)
       霍华德·乔斯林 Howard Joslin (id:1031299)
       约翰·P·富尔顿 John P. Fulton (id:1083513)
◎简  介

  小男孩哈尼在森林中漫步时,发现了他的父亲——哈利的尸体。不同于一般谋杀案,这次因为多人都自认为凶手而令案情更加扑朔迷离。亚伯特船长(埃德蒙?格温 Edmund Gwenn 饰)认为是他在打猎射击时误杀了哈利;村落里的老处女葛雷布礼小姐(麦尔翠德?耐维克 Mildred Natwick 饰)认为是因为她为了保住自己的名声而用一只鞋子打了哈利的头部而造成他的死亡;与哈利感情不睦的妻子珍妮佛(雪莉?麦克雷恩 Shirley MacLaine 饰)则认为是她因为反抗哈利的性爱用装牛奶的罐子敲向他的脑袋而造成了他的死亡。真相最后能否水落石出?
◎获奖情况 (共1项)
  第12届金球奖 (1955)
  电影类 年度女新星
   └──雪莉·麦克雷恩 (id:1048130)
  1. Video
  2. ID                                       : 1
  3. Format                                   : AVC
  4. Format/Info                              : Advanced Video Codec
  5. Format profile                           : [email protected]
  6. Format settings                          : CABAC / 5 Ref Frames
  7. Format settings, CABAC                   : Yes
  8. Format settings, Reference frames        : 5 frames
  9. Codec ID                                 : V_MPEG4/ISO/AVC
  10. Duration                                 : 1 h 39 min
  11. Bit rate                                 : 66.8 Mb/s
  12. Width                                    : 3 840 pixels
  13. Height                                   : 2 078 pixels
  14. Display aspect ratio                     : 1.85:1
  15. Frame rate mode                          : Constant
  16. Frame rate                               : 23.976 (24000/1001/189150) FPS
  17. Color space                              : YUV
  18. Chroma subsampling                       : 4:2:0
  19. Bit depth                                : 8 bits
  20. Scan type                                : Progressive
  21. Bits/(Pixel*Frame)                       : 0.349
  22. Stream size                              : 46.4 GiB (96%)
  23. Writing library                          : x264 core 157 r2935 545de2f
  24. Encoding settings                        : cabac=1 / ref=5 / deblock=1:-1:-1 / analyse=0x3:0x113 / me=umh / subme=10 / psy=1 / psy_rd=1.00:0.15 / mixed_ref=1 / me_range=48 / chroma_me=1 / trellis=2 / 8x8dct=1 / cqm=0 / deadzone=21,11 / fast_pskip=1 / chroma_qp_offset=-3 / threads=48 / lookahead_threads=4 / sliced_threads=0 / nr=0 / decimate=0 / interlaced=0 / bluray_compat=0 / constrained_intra=0 / bframes=3 / b_pyramid=2 / b_adapt=2 / b_bias=0 / direct=3 / weightb=1 / open_gop=0 / weightp=2 / keyint=250 / keyint_min=23 / scenecut=40 / intra_refresh=0 / rc_lookahead=50 / rc=crf / mbtree=1 / crf=19.0 / qcomp=0.60 / qpmin=0 / qpmax=69 / qpstep=4 / ip_ratio=1.40 / aq=1:1.00
  25. Default                                  : Yes
  26. Forced                                   : No

  27. Audio #1
  28. ID                                       : 2
  29. ID in the original source medium         : 4352 (0x1100)
  30. Format                                   : DTS XLL
  31. Format/Info                              : Digital Theater Systems
  32. Commercial name                          : DTS-HD Master Audio
  33. Codec ID                                 : A_DTS
  34. Duration                                 : 1 h 39 min
  35. Bit rate mode                            : Variable
  36. Bit rate                                 : 1 772 kb/s
  37. Channel(s)                               : 2 channels
  38. Channel layout                           : L R
  39. Sampling rate                            : 48.0 kHz
  40. Frame rate                               : 93.750 FPS (512 SPF)
  41. Bit depth                                : 24 bits
  42. Compression mode                         : Lossless
  43. Stream size                              : 1.23 GiB (3%)
  44. Title                                    : DTS-HD MA 2.0
  45. Language                                 : English
  46. Default                                  : Yes
  47. Forced                                   : No
  48. Original source medium                   : Blu-ray

  49. Audio #2
  50. ID                                       : 3
  51. Format                                   : AC-3
  52. Format/Info                              : Audio Coding 3
  53. Commercial name                          : Dolby Digital
  54. Codec ID                                 : A_AC3
  55. Duration                                 : 1 h 39 min
  56. Bit rate mode                            : Constant
  57. Bit rate                                 : 640 kb/s
  58. Channel(s)                               : 2 channels
  59. Channel layout                           : L R
  60. Sampling rate                            : 48.0 kHz
  61. Frame rate                               : 31.250 FPS (1536 SPF)
  62. Compression mode                         : Lossy
  63. Stream size                              : 455 MiB (1%)
  64. Title                                    : DD 2.0
  65. Language                                 : English
  66. Service kind                             : Complete Main
  67. Default                                  : No
  68. Forced                                   : No

  69. Text #1
  70. ID                                       : 4
  71. Format                                   : UTF-8
  72. Codec ID                                 : S_TEXT/UTF8
  73. Codec ID/Info                            : UTF-8 Plain Text
  74. Duration                                 : 1 h 35 min
  75. Bit rate                                 : 78 b/s
  76. Count of elements                        : 1416
  77. Stream size                              : 55.2 KiB (0%)
  78. Language                                 : English
  79. Default                                  : Yes
  80. Forced                                   : No

  81. Text #2
  82. ID                                       : 5
  83. Format                                   : UTF-8
  84. Codec ID                                 : S_TEXT/UTF8
  85. Codec ID/Info                            : UTF-8 Plain Text
  86. Duration                                 : 1 h 37 min
  87. Bit rate                                 : 78 b/s
  88. Count of elements                        : 1458
  89. Stream size                              : 55.9 KiB (0%)
  90. Title                                    : SDH
  91. Language                                 : English
  92. Default                                  : No
  93. Forced                                   : No

  94. Text #3
  95. ID                                       : 6
  96. ID in the original source medium         : 4768 (0x12A0)
  97. Format                                   : PGS
  98. Muxing mode                              : zlib
  99. Codec ID                                 : S_HDMV/PGS
  100. Codec ID/Info                            : Picture based subtitle format used on BDs/HD-DVDs
  101. Duration                                 : 1 h 37 min
  102. Bit rate                                 : 52.3 kb/s
  103. Count of elements                        : 2939
  104. Stream size                              : 36.4 MiB (0%)
  105. Language                                 : English
  106. Default                                  : No
  107. Forced                                   : No
  108. Original source medium                   : Blu-ray

  109. Text #4
  110. ID                                       : 7
  111. ID in the original source medium         : 4769 (0x12A1)
  112. Format                                   : PGS
  113. Muxing mode                              : zlib
  114. Codec ID                                 : S_HDMV/PGS
  115. Codec ID/Info                            : Picture based subtitle format used on BDs/HD-DVDs
  116. Duration                                 : 1 h 38 min
  117. Bit rate                                 : 48.7 kb/s
  118. Count of elements                        : 2724
  119. Stream size                              : 34.4 MiB (0%)
  120. Language                                 : French
  121. Default                                  : No
  122. Forced                                   : No
  123. Original source medium                   : Blu-ray

  124. Text #5
  125. ID                                       : 8
  126. ID in the original source medium         : 4770 (0x12A2)
  127. Format                                   : PGS
  128. Muxing mode                              : zlib
  129. Codec ID                                 : S_HDMV/PGS
  130. Codec ID/Info                            : Picture based subtitle format used on BDs/HD-DVDs
  131. Duration                                 : 1 h 36 min
  132. Bit rate                                 : 46.3 kb/s
  133. Count of elements                        : 2713
  134. Stream size                              : 31.8 MiB (0%)
  135. Language                                 : Spanish
  136. Default                                  : No
  137. Forced                                   : No
  138. Original source medium                   : Blu-ray

  139. Text #6
  140. ID                                       : 9
  141. ID in the original source medium         : 4771 (0x12A3)
  142. Format                                   : PGS
  143. Muxing mode                              : zlib
  144. Codec ID                                 : S_HDMV/PGS
  145. Codec ID/Info                            : Picture based subtitle format used on BDs/HD-DVDs
  146. Duration                                 : 1 h 36 min
  147. Bit rate                                 : 26.8 kb/s
  148. Count of elements                        : 2475
  149. Stream size                              : 18.4 MiB (0%)
  150. Language                                 : Japanese
  151. Default                                  : No
  152. Forced                                   : No
  153. Original source medium                   : Blu-ray

  154. Text #7
  155. ID                                       : 10
  156. ID in the original source medium         : 4772 (0x12A4)
  157. Format                                   : PGS
  158. Muxing mode                              : zlib
  159. Codec ID                                 : S_HDMV/PGS
  160. Codec ID/Info                            : Picture based subtitle format used on BDs/HD-DVDs
  161. Duration                                 : 1 h 38 min
  162. Bit rate                                 : 50.5 kb/s
  163. Count of elements                        : 2719
  164. Stream size                              : 35.6 MiB (0%)
  165. Language                                 : German
  166. Default                                  : No
  167. Forced                                   : No
  168. Original source medium                   : Blu-ray

  169. Text #8
  170. ID                                       : 11
  171. ID in the original source medium         : 4773 (0x12A5)
  172. Format                                   : PGS
  173. Muxing mode                              : zlib
  174. Codec ID                                 : S_HDMV/PGS
  175. Codec ID/Info                            : Picture based subtitle format used on BDs/HD-DVDs
  176. Duration                                 : 1 h 38 min
  177. Bit rate                                 : 44.5 kb/s
  178. Count of elements                        : 2719
  179. Stream size                              : 31.4 MiB (0%)
  180. Language                                 : Italian
  181. Default                                  : No
  182. Forced                                   : No
  183. Original source medium                   : Blu-ray

  184. Text #9
  185. ID                                       : 12
  186. ID in the original source medium         : 4774 (0x12A6)
  187. Format                                   : PGS
  188. Muxing mode                              : zlib
  189. Codec ID                                 : S_HDMV/PGS
  190. Codec ID/Info                            : Picture based subtitle format used on BDs/HD-DVDs
  191. Duration                                 : 1 h 36 min
  192. Bit rate                                 : 46.5 kb/s
  193. Count of elements                        : 2717
  194. Stream size                              : 32.0 MiB (0%)
  195. Language                                 : Dutch
  196. Default                                  : No
  197. Forced                                   : No
  198. Original source medium                   : Blu-ray

  199. Text #10
  200. ID                                       : 13
  201. ID in the original source medium         : 4775 (0x12A7)
  202. Format                                   : PGS
  203. Muxing mode                              : zlib
  204. Codec ID                                 : S_HDMV/PGS
  205. Codec ID/Info                            : Picture based subtitle format used on BDs/HD-DVDs
  206. Duration                                 : 1 h 36 min
  207. Bit rate                                 : 46.7 kb/s
  208. Count of elements                        : 2717
  209. Stream size                              : 32.1 MiB (0%)
  210. Language                                 : Danish
  211. Default                                  : No
  212. Forced                                   : No
  213. Original source medium                   : Blu-ray

  214. Text #11
  215. ID                                       : 14
  216. ID in the original source medium         : 4776 (0x12A8)
  217. Format                                   : PGS
  218. Muxing mode                              : zlib
  219. Codec ID                                 : S_HDMV/PGS
  220. Codec ID/Info                            : Picture based subtitle format used on BDs/HD-DVDs
  221. Duration                                 : 1 h 38 min
  222. Bit rate                                 : 41.8 kb/s
  223. Count of elements                        : 2719
  224. Stream size                              : 29.5 MiB (0%)
  225. Language                                 : Finnish
  226. Default                                  : No
  227. Forced                                   : No
  228. Original source medium                   : Blu-ray

  229. Text #12
  230. ID                                       : 15
  231. ID in the original source medium         : 4777 (0x12A9)
  232. Format                                   : PGS
  233. Muxing mode                              : zlib
  234. Codec ID                                 : S_HDMV/PGS
  235. Codec ID/Info                            : Picture based subtitle format used on BDs/HD-DVDs
  236. Duration                                 : 1 h 38 min
  237. Bit rate                                 : 43.2 kb/s
  238. Count of elements                        : 2719
  239. Stream size                              : 30.5 MiB (0%)
  240. Language                                 : Norwegian
  241. Default                                  : No
  242. Forced                                   : No
  243. Original source medium                   : Blu-ray

  244. Text #13
  245. ID                                       : 16
  246. ID in the original source medium         : 4778 (0x12AA)
  247. Format                                   : PGS
  248. Muxing mode                              : zlib
  249. Codec ID                                 : S_HDMV/PGS
  250. Codec ID/Info                            : Picture based subtitle format used on BDs/HD-DVDs
  251. Duration                                 : 1 h 36 min
  252. Bit rate                                 : 43.2 kb/s
  253. Count of elements                        : 2717
  254. Stream size                              : 29.7 MiB (0%)
  255. Language                                 : Swedish
  256. Default                                  : No
  257. Forced                                   : No
  258. Original source medium                   : Blu-ray

  259. Menu
  260. 00:00:00.000                             : en:Chapter 01
  261. 00:01:52.070                             : en:Chapter 02
  262. 00:05:15.523                             : en:Chapter 03
  263. 00:14:06.053                             : en:Chapter 04
  264. 00:20:47.496                             : en:Chapter 05
  265. 00:24:20.459                             : en:Chapter 06
  266. 00:38:01.696                             : en:Chapter 07
  267. 00:43:15.259                             : en:Chapter 08
  268. 00:47:22.089                             : en:Chapter 09
  269. 00:54:20.924                             : en:Chapter 10
  270. 00:56:48.988                             : en:Chapter 11
  271. 01:02:55.062                             : en:Chapter 12
  272. 01:10:03.532                             : en:Chapter 13
  273. 01:14:27.880                             : en:Chapter 14
  274. 01:21:21.835                             : en:Chapter 15
  275. 01:26:25.638                             : en:Chapter 16
  276. 01:34:42.760                             : en:Chapter 17
  277. 01:37:19.583                             : en:Chapter 18
复制代码








                                       
                                       

                                       
                                       
                                       




The.Trouble.with.Harry.1955.2160p.BluRay.x264.8bit.SDR.DTS-HD.MA.2.0-SWTYBLZ.torrent (61.21 KB, 下载次数: 1)
回复

使用道具 举报

您需要登录后才可以回帖 登录 | 立即注册

本版积分规则

QQ|Archiver|手机版|小黑屋|蓝光电影网

GMT+8, 2022-5-17 02:51 , Processed in 0.052329 second(s), 28 queries .

Powered by Discuz! X3.4

Copyright © 2001-2020, Tencent Cloud.

快速回复 返回顶部 返回列表