找回密码
 立即注册

QQ登录

只需一步,快速开始

查看: 69|回复: 0

[科幻片] 太空即地点 Space.Is.The.Place.1974.iNTERNAL.720p.BluRay.x264-PEGASUS 4.48GB

[复制链接]

0

精华

0

好友

2

听众

新手上路

Rank: 2

蓝光币
5
发表于 2022-5-11 06:58:36 | 显示全部楼层 |阅读模式


◎译  名 太空即地点 / 太空境地 / Sun Ra & His Intergalactic Arkestra: Space Is the Place
◎片  名 Space Is the Place
◎年  代 1974
◎产  地 美国
◎类  别 科幻 / 音乐
◎语  言 英语
◎上映日期 1974
◎IMDb链接 https://www.imdb.com/title/tt0072195/
◎豆瓣评分 7.0/10 (88人评价)
◎豆瓣链接 https://movie.douban.com/subject/2278852/
◎片  长 85 分钟
◎编  剧 Sun Ra Sun Ra (id:1020246)
◎演  员 Jack Baker Jack Baker (id:1019266)
       Morgan Upton Morgan Upton (id:1158994)
       June Tyson June Tyson (id:1154422)
       Lex Humphries Lex Humphries (id:1106041)
       Marshall Allen Marshall Allen (id:1057223)
       Sun Ra Sun Ra (id:1020246)
       吉米·纽曼 Jim Newman (id:1022497)
       Sun Ra Sun Ra (id:1020246)
       William S. Jones William S. Jones (id:1026755)
◎简  介

  Sun Ra+电影=超现实+迷幻?
  1. Video
  2. ID                                       : 1
  3. Format                                   : AVC
  4. Format/Info                              : Advanced Video Codec
  5. Format profile                           : [email protected]
  6. Format settings                          : CABAC / 12 Ref Frames
  7. Format settings, CABAC                   : Yes
  8. Format settings, Reference frames        : 12 frames
  9. Codec ID                                 : V_MPEG4/ISO/AVC
  10. Duration                                 : 1 h 21 min
  11. Bit rate                                 : 7 441 kb/s
  12. Width                                    : 960 pixels
  13. Height                                   : 720 pixels
  14. Display aspect ratio                     : 4:3
  15. Frame rate mode                          : Constant
  16. Frame rate                               : 24.000 FPS
  17. Color space                              : YUV
  18. Chroma subsampling                       : 4:2:0
  19. Bit depth                                : 8 bits
  20. Scan type                                : Progressive
  21. Bits/(Pixel*Frame)                       : 0.449
  22. Stream size                              : 4.24 GiB (95%)
  23. Writing library                          : x264 core 164 r3094 bfc87b7
  24. Encoding settings                        : cabac=1 / ref=12 / deblock=1:-3:-3 / analyse=0x3:0x133 / me=umh / subme=10 / psy=1 / psy_rd=1.00:0.00 / mixed_ref=1 / me_range=32 / chroma_me=1 / trellis=2 / 8x8dct=1 / cqm=0 / deadzone=6,6 / fast_pskip=0 / chroma_qp_offset=-2 / threads=22 / lookahead_threads=5 / sliced_threads=0 / nr=0 / decimate=0 / interlaced=0 / bluray_compat=0 / constrained_intra=0 / bframes=16 / b_pyramid=2 / b_adapt=2 / b_bias=0 / direct=3 / weightb=1 / open_gop=0 / weightp=2 / keyint=250 / keyint_min=24 / scenecut=40 / intra_refresh=0 / rc_lookahead=250 / rc=crf / mbtree=0 / crf=22.0 / qcomp=0.65 / qpmin=0 / qpmax=69 / qpstep=4 / vbv_maxrate=62500 / vbv_bufsize=78125 / crf_max=0.0 / nal_hrd=none / filler=0 / ip_ratio=1.30 / pb_ratio=1.20 / aq=2:0.80
  25. Default                                  : Yes
  26. Forced                                   : No
  27. Color range                              : Limited
  28. Color primaries                          : BT.709
  29. Matrix coefficients                      : BT.709

  30. Audio
  31. ID                                       : 2
  32. Format                                   : FLAC
  33. Format/Info                              : Free Lossless Audio Codec
  34. Codec ID                                 : A_FLAC
  35. Duration                                 : 1 h 21 min
  36. Bit rate mode                            : Variable
  37. Bit rate                                 : 411 kb/s
  38. Channel(s)                               : 2 channels
  39. Channel layout                           : L R
  40. Sampling rate                            : 48.0 kHz
  41. Frame rate                               : 11.719 FPS (4096 SPF)
  42. Bit depth                                : 16 bits
  43. Compression mode                         : Lossless
  44. Stream size                              : 239 MiB (5%)
  45. Writing library                          : libFLAC 1.2.1 (UTC 2007-09-17)
  46. Language                                 : English
  47. Default                                  : Yes
  48. Forced                                   : No

  49. Text
  50. ID                                       : 3
  51. Format                                   : PGS
  52. Muxing mode                              : zlib
  53. Codec ID                                 : S_HDMV/PGS
  54. Codec ID/Info                            : Picture based subtitle format used on BDs/HD-DVDs
  55. Duration                                 : 1 h 21 min
  56. Bit rate                                 : 20.8 kb/s
  57. Count of elements                        : 1328
  58. Stream size                              : 12.1 MiB (0%)
  59. Language                                 : German
  60. Default                                  : No
  61. Forced                                   : No

  62. Menu
  63. 00:00:00.000                             : :Chapter 01
  64. 00:03:32.958                             : :Chapter 02
  65. 00:09:50.250                             : :Chapter 03
  66. 00:11:11.208                             : :Chapter 04
  67. 00:13:59.792                             : :Chapter 05
  68. 00:18:13.458                             : :Chapter 06
  69. 00:20:15.833                             : :Chapter 07
  70. 00:21:28.500                             : :Chapter 08
  71. 00:29:57.000                             : :Chapter 09
  72. 00:34:27.042                             : :Chapter 10
  73. 00:39:49.208                             : :Chapter 11
  74. 00:44:13.458                             : :Chapter 12
  75. 00:54:11.792                             : :Chapter 13
  76. 00:58:11.583                             : :Chapter 14
  77. 01:03:36.833                             : :Chapter 15
  78. 01:05:15.500                             : :Chapter 16
  79. 01:12:22.792                             : :Chapter 17
  80. 01:15:08.667                             : :Chapter 18
  81. 01:19:24.125                             : :Chapter 19
复制代码





                                       
                                       

                                       
                                       
                                       




Space.Is.The.Place.1974.iNTERNAL.720p.BluRay.x264-PEGASUS.torrent (23.15 KB, 下载次数: 0)
回复

使用道具 举报

您需要登录后才可以回帖 登录 | 立即注册

本版积分规则

QQ|Archiver|手机版|小黑屋|蓝光电影网

GMT+8, 2022-7-4 22:27 , Processed in 0.058146 second(s), 28 queries .

Powered by Discuz! X3.4

Copyright © 2001-2020, Tencent Cloud.

快速回复 返回顶部 返回列表