找回密码
 立即注册

QQ登录

只需一步,快速开始

查看: 64|回复: 0

[剧情片] 毒药 Poison.1991.720p.BluRay.x264-USURY 7.24GB

[复制链接]

0

精华

0

好友

2

听众

新手上路

Rank: 2

蓝光币
5
发表于 2022-5-8 06:50:10 | 显示全部楼层 |阅读模式


◎译  名 毒药 / 爱情砒霜
◎片  名 Poison
◎年  代 1991
◎产  地 美国
◎类  别 剧情 / 爱情 / 恐怖 / 同性
◎语  言 英语
◎上映日期 1991-04-05
◎IMDb链接 https://www.imdb.com/title/tt0102687/
◎豆瓣评分 7.3/10 (984人评价)
◎豆瓣链接 https://movie.douban.com/subject/1292499/
◎片  长 85 分钟
◎导  演 托德·海因斯 Todd Haynes (id:1014069)
◎编  剧 托德·海因斯 Todd Haynes (id:1014069)
       让·热内 Jean Genet (id:1037506)
◎演  员 约翰·G·康诺利 John G. Connolly (id:1313021)
       Lauren Zalaznick Lauren Zalaznick (id:1301614)
       Tony Pemberton Tony Pemberton (id:1294232)
       詹姆斯·夏慕斯 James Schamus (id:1050276)
       Lauren Zalaznick Lauren Zalaznick (id:1301614)
       玛丽斯·阿尔伯蒂 Maryse Alberti (id:1032954)
       托德·海因斯 Todd Haynes (id:1014069)
       卡里姆·埃诺兹 Karim Ainouz (id:1014606)
       Sarah Stollman Sarah Stollman (id:1298481)
◎简  介

  爱情可以醇如佳酿,也可毒如砒霜。《毒药》要讲的就是三个离经叛道的荒诞故事。《英雄》中的英雄并非什么占士邦或铁金刚式打不死,而是一个乳臭未乾的黄毛小子。都说不可小覤新新人类的力量──年仅七岁的小主角枪杀无赖老豆,绝不手震。《可怖》向50年代经典恐怖科幻片《变蝇人魔》致敬。科学家成功研究出一个惊世实验,把人类性欲化作液体保存。三个短篇中最引起争议的,是描绘监狱另类春光的《凶毛》。一个终生囚犯不能自拔的迷恋囚友,自虐被虐共冶一炉,引人入「性」。粗犷暴烈的场面赤裸裸地冲击观众底线。三段人生,三种手法。《紫醉金迷》导演托特海恩斯就是凭本片夺得1991年辛丹士影展大奖,一鸣惊人。
◎获奖情况 (共1项)
  第41届柏林国际电影节 (1991)
  泰迪熊奖 最佳电影
   └──托德·海因斯 (id:1014069)
  1. Video
  2. ID                                       : 1
  3. Format                                   : AVC
  4. Format/Info                              : Advanced Video Codec
  5. Format profile                           : [email protected]
  6. Format settings                          : CABAC / 9 Ref Frames
  7. Format settings, CABAC                   : Yes
  8. Format settings, Reference frames        : 9 frames
  9. Codec ID                                 : V_MPEG4/ISO/AVC
  10. Duration                                 : 1 h 25 min
  11. Bit rate                                 : 11.7 Mb/s
  12. Width                                    : 1 280 pixels
  13. Height                                   : 720 pixels
  14. Display aspect ratio                     : 16:9
  15. Frame rate mode                          : Constant
  16. Frame rate                               : 23.976 (24000/1001/189150) FPS
  17. Color space                              : YUV
  18. Chroma subsampling                       : 4:2:0
  19. Bit depth                                : 8 bits
  20. Scan type                                : Progressive
  21. Bits/(Pixel*Frame)                       : 0.532
  22. Stream size                              : 7.03 GiB (97%)
  23. Writing library                          : x264 core 164 r3094 bfc87b7
  24. Encoding settings                        : cabac=1 / ref=9 / deblock=1:-3:-3 / analyse=0x3:0x133 / me=umh / subme=10 / psy=1 / psy_rd=1.00:0.15 / mixed_ref=1 / me_range=24 / chroma_me=1 / trellis=2 / 8x8dct=1 / cqm=0 / deadzone=21,11 / fast_pskip=1 / chroma_qp_offset=-3 / threads=18 / lookahead_threads=3 / sliced_threads=0 / nr=0 / decimate=1 / interlaced=0 / bluray_compat=0 / constrained_intra=0 / bframes=8 / b_pyramid=2 / b_adapt=2 / b_bias=0 / direct=3 / weightb=1 / open_gop=0 / weightp=2 / keyint=250 / keyint_min=23 / scenecut=40 / intra_refresh=0 / rc_lookahead=60 / rc=crf / mbtree=1 / crf=18.0 / qcomp=0.60 / qpmin=0 / qpmax=69 / qpstep=4 / ip_ratio=1.40 / aq=3:0.50
  25. Language                                 : English
  26. Default                                  : Yes
  27. Forced                                   : No

  28. Audio #1
  29. ID                                       : 2
  30. Format                                   : FLAC
  31. Format/Info                              : Free Lossless Audio Codec
  32. Codec ID                                 : A_FLAC
  33. Duration                                 : 1 h 25 min
  34. Bit rate mode                            : Variable
  35. Bit rate                                 : 223 kb/s
  36. Channel(s)                               : 2 channels
  37. Channel layout                           : L R
  38. Sampling rate                            : 48.0 kHz
  39. Frame rate                               : 11.719 FPS (4096 SPF)
  40. Bit depth                                : 16 bits
  41. Compression mode                         : Lossless
  42. Stream size                              : 137 MiB (2%)
  43. Writing library                          : libFLAC 1.2.1 (UTC 2007-09-17)
  44. Language                                 : English
  45. Default                                  : Yes
  46. Forced                                   : No

  47. Audio #2
  48. ID                                       : 3
  49. Format                                   : AAC LC
  50. Format/Info                              : Advanced Audio Codec Low Complexity
  51. Codec ID                                 : A_AAC-2
  52. Duration                                 : 1 h 25 min
  53. Bit rate                                 : 91.9 kb/s
  54. Channel(s)                               : 2 channels
  55. Channel layout                           : L R
  56. Sampling rate                            : 48.0 kHz
  57. Frame rate                               : 46.875 FPS (1024 SPF)
  58. Compression mode                         : Lossy
  59. Delay relative to video                  : 9 ms
  60. Stream size                              : 56.3 MiB (1%)
  61. Title                                    : English Commentary by Todd Haynes, Christine Vachon and James Lyons
  62. Language                                 : English
  63. Default                                  : No
  64. Forced                                   : No

  65. Text #1
  66. ID                                       : 4
  67. Format                                   : UTF-8
  68. Codec ID                                 : S_TEXT/UTF8
  69. Codec ID/Info                            : UTF-8 Plain Text
  70. Duration                                 : 1 h 21 min
  71. Bit rate                                 : 42 b/s
  72. Count of elements                        : 808
  73. Stream size                              : 25.6 KiB (0%)
  74. Title                                    : English
  75. Language                                 : English
  76. Default                                  : No
  77. Forced                                   : No

  78. Text #2
  79. ID                                       : 5
  80. Format                                   : UTF-8
  81. Codec ID                                 : S_TEXT/UTF8
  82. Codec ID/Info                            : UTF-8 Plain Text
  83. Duration                                 : 1 h 21 min
  84. Bit rate                                 : 45 b/s
  85. Count of elements                        : 846
  86. Stream size                              : 27.3 KiB (0%)
  87. Title                                    : English SDH
  88. Language                                 : English
  89. Default                                  : No
  90. Forced                                   : No

  91. Text #3
  92. ID                                       : 6
  93. Format                                   : PGS
  94. Muxing mode                              : zlib
  95. Codec ID                                 : S_HDMV/PGS
  96. Codec ID/Info                            : Picture based subtitle format used on BDs/HD-DVDs
  97. Duration                                 : 1 h 21 min
  98. Bit rate                                 : 31.1 kb/s
  99. Count of elements                        : 1692
  100. Stream size                              : 18.2 MiB (0%)
  101. Title                                    : English SDH
  102. Language                                 : English
  103. Default                                  : No
  104. Forced                                   : No

  105. Menu
  106. 00:00:00.000                             : en:00:00:00.000
  107. 00:08:50.280                             : en:00:08:50.280
  108. 00:21:48.307                             : en:00:21:48.307
  109. 00:30:10.934                             : en:00:30:10.934
  110. 00:38:09.454                             : en:00:38:09.454
  111. 00:51:35.509                             : en:00:51:35.509
  112. 01:00:44.724                             : en:01:00:44.724
  113. 01:08:39.741                             : en:01:08:39.741
  114. 01:18:00.801                             : en:01:18:00.801
  115. 01:22:37.369                             : en:01:22:37.369
复制代码





                                       
                                       

                                       
                                       
                                       




Poison.1991.720p.BluRay.x264-USURY.torrent (18.8 KB, 下载次数: 0)
回复

使用道具 举报

您需要登录后才可以回帖 登录 | 立即注册

本版积分规则

QQ|Archiver|手机版|小黑屋|蓝光电影网

GMT+8, 2022-7-5 00:12 , Processed in 0.054119 second(s), 28 queries .

Powered by Discuz! X3.4

Copyright © 2001-2020, Tencent Cloud.

快速回复 返回顶部 返回列表