找回密码
 立即注册

QQ登录

只需一步,快速开始

查看: 102|回复: 0

[UHD.HEVC] 老去/归老 Old.2021.2160p.BluRay.REMUX.HEVC.DTS-HD.MA.TrueHD.7.1.Atmos-FGT 69.48GB

[复制链接]

0

精华

0

好友

1

听众

新手上路

Rank: 2

蓝光币
5
发表于 2021-10-22 09:32:11 | 显示全部楼层 |阅读模式
[img][/img]

◎译  名 老去/归老(豆友译名)/诡老(台)
◎片  名 Old
◎年  代 2021
◎产  地 美国
◎类  别 剧情 / 悬疑 / 惊悚 / 恐怖
◎语  言 英语
◎上映日期 2021-07-21(法国) / 2021-07-23(美国)
◎豆瓣评分 6.3/10 from 15824 users
◎豆瓣链接 https://movie.douban.com/subject/35017064/
◎片  长 108分钟
◎导  演 M·奈特·沙马兰 M. Night Shyamalan
◎编  剧 M·奈特·沙马兰 M. Night Shyamalan / 皮埃尔·莱维 Pierre Levy / 弗雷德里克·皮特斯 Frederick Peeters / Frederik Peeters Frederik Peeters
◎主  演 盖尔·加西亚·贝纳尔 Gael García Bernal
       薇姬·克里普斯 Vicky Krieps
       卢夫斯·塞维尔 Rufus Sewell
       亚历克斯·沃尔夫 Alex Wolff
       托马辛·麦肯齐 Thomasin McKenzie
       阿比·丽 Abbey Lee
       妮基·阿姆卡-伯德 Nikki Amuka-Bird
       肯·梁 Ken Leung
       伊莱扎·斯坎伦 Eliza Scanlen
       亚伦·皮埃尔 Aaron Pierre
       艾伯丝·戴维兹 Embeth Davidtz
       埃蒙·埃利奥特 Emun Elliott
       亚历克莎·斯温顿 Alexa Swinton
       古斯塔夫·汉马斯顿 Gustaf Hammarsten
       凯思琳·查尔方特 Kathleen Chalfant
       弗朗西斯卡·伊斯特伍德 Francesca Eastwood
       M·奈特·沙马兰 M. Night Shyamalan
       马修·希尔 Matthew Shear
       杰弗里·霍尔斯曼 Jeffrey Holsman
       玛格·达·席尔瓦 Margaux Da Silva
◎标  签 惊悚 | 美国 | 悬疑 | 2021 | 恐怖 | 奇幻 | 科幻 | 剧情
◎简  介


  这是一个完美的海滩假日,至少有一家人、一对年轻夫妇、几个游客和一个流亡者都这么认为,他们来到了同一个幽静、田园般的小海湾,那里有岩石池和沙滩,四周环绕着绿油油的、植被茂密的悬崖。但这个乌托邦背后隐藏着一个黑暗的秘密:首先是在水晶般清澈的水中有一具漂浮的女性尸体。还有一个诡异的事实正在上演:所有的孩子都在迅速衰老。很快,每个人都都发现他们正在变老——每半小时一次——而且他们似乎没有任何办法离开这个小海湾。
  
  沙马兰说这部电影是受到 Pierre Oscar Levy和艺术家Frederik Peeters创作的法国图画小说《沙堡》(Sandcastle)的启发。《沙堡》的故事里有13个人,他们无法离开一个神秘,僻静的海滩,那里隐藏着涉及时间的黑暗秘密。不过漫画里并没有给出这个时间谜团出现的原因,更像是一个关于生存与死亡预言故事。但《OLD》并不是直接改编自这部图像小说,所以沙马兰本人会来讲完这个故事和脑洞。
  1. Video
  2. ID                                       : 1
  3. ID in the original source medium         : 4113 (0x1011)
  4. Format                                   : HEVC
  5. Format/Info                              : High Efficiency Video Coding
  6. Format profile                           : Main [email protected]@High
  7. HDR format                               : Dolby Vision, Version 1.0, dvhe.07.06, BL+EL+RPU, Blu-ray compatible / SMPTE ST 2086, HDR10 compatible
  8. Codec ID                                 : V_MPEGH/ISO/HEVC
  9. Duration                                 : 1 h 48 min
  10. Bit rate                                 : 81.3 Mb/s
  11. Width                                    : 3 840 pixels
  12. Height                                   : 2 160 pixels
  13. Display aspect ratio                     : 16:9
  14. Frame rate mode                          : Constant
  15. Frame rate                               : 23.976 (24000/1001/189150) FPS
  16. Color space                              : YUV
  17. Chroma subsampling                       : 4:2:0 (Type 2)
  18. Bit depth                                : 10 bits
  19. Bits/(Pixel*Frame)                       : 0.409
  20. Stream size                              : 61.6 GiB (89%)
  21. Language                                 : English
  22. Default                                  : No
  23. Forced                                   : No
  24. Color range                              : Limited
  25. Color primaries                          : BT.2020
  26. Transfer characteristics                 : PQ
  27. Matrix coefficients                      : BT.2020 non-constant
  28. Mastering display color primaries        : Display P3
  29. Mastering display luminance              : min: 0.0050 cd/m2, max: 4000 cd/m2
  30. Maximum Content Light Level              : 392 cd/m2
  31. Maximum Frame-Average Light Level        : 108 cd/m2
  32. Original source medium                   : Blu-ray

  33. Audio #1
  34. ID                                       : 2
  35. ID in the original source medium         : 4352 (0x1100)
  36. Format                                   : MLP FBA 16-ch
  37. Format/Info                              : Meridian Lossless Packing FBA with 16-channel presentation
  38. Commercial name                          : Dolby TrueHD with Dolby Atmos
  39. Codec ID                                 : A_TRUEHD
  40. Duration                                 : 1 h 48 min
  41. Bit rate mode                            : Variable
  42. Bit rate                                 : 3 411 kb/s
  43. Maximum bit rate                         : 4 908 kb/s
  44. Channel(s)                               : 8 channels
  45. Channel layout                           : L R C LFE Ls Rs Lb Rb
  46. Sampling rate                            : 48.0 kHz
  47. Frame rate                               : 1 200.000 FPS (40 SPF)
  48. Bit depth                                : 24 bits
  49. Compression mode                         : Lossless
  50. Stream size                              : 2.58 GiB (4%)
  51. Title                                    : TrueHD 7.1 Atmos
  52. Language                                 : English
  53. Default                                  : Yes
  54. Forced                                   : No
  55. Original source medium                   : Blu-ray
  56. Number of dynamic objects                : 11
  57. Bed channel count                        : 1 channel
  58. Bed channel configuration                : LFE

  59. Audio #2
  60. ID                                       : 3
  61. Format                                   : DTS XLL
  62. Format/Info                              : Digital Theater Systems
  63. Commercial name                          : DTS-HD Master Audio
  64. Codec ID                                 : A_DTS
  65. Duration                                 : 1 h 48 min
  66. Bit rate mode                            : Variable
  67. Bit rate                                 : 4 558 kb/s
  68. Channel(s)                               : 8 channels
  69. Channel layout                           : C L R LFE Lb Rb Lss Rss
  70. Sampling rate                            : 48.0 kHz
  71. Frame rate                               : 93.750 FPS (512 SPF)
  72. Bit depth                                : 24 bits
  73. Compression mode                         : Lossless
  74. Stream size                              : 3.45 GiB (5%)
  75. Title                                    : DTS-HD MA 7.1
  76. Language                                 : English
  77. Default                                  : No
  78. Forced                                   : No

  79. Audio #3
  80. ID                                       : 4
  81. ID in the original source medium         : 4352 (0x1100)
  82. Format                                   : AC-3
  83. Format/Info                              : Audio Coding 3
  84. Commercial name                          : Dolby Digital
  85. Codec ID                                 : A_AC3
  86. Duration                                 : 1 h 48 min
  87. Bit rate mode                            : Constant
  88. Bit rate                                 : 448 kb/s
  89. Channel(s)                               : 6 channels
  90. Channel layout                           : L R C LFE Ls Rs
  91. Sampling rate                            : 48.0 kHz
  92. Frame rate                               : 31.250 FPS (1536 SPF)
  93. Compression mode                         : Lossy
  94. Stream size                              : 348 MiB (0%)
  95. Title                                    : DD 5.1
  96. Language                                 : English
  97. Service kind                             : Complete Main
  98. Default                                  : No
  99. Forced                                   : No
  100. Original source medium                   : Blu-ray

  101. Audio #4
  102. ID                                       : 5
  103. Format                                   : E-AC-3
  104. Format/Info                              : Enhanced AC-3
  105. Commercial name                          : Dolby Digital Plus
  106. Format profile                           : Blu-ray Disc
  107. Codec ID                                 : A_EAC3
  108. Duration                                 : 1 h 48 min
  109. Bit rate mode                            : Constant
  110. Bit rate                                 : 768 kb/s
  111. Channel(s)                               : 8 channels
  112. Channel layout                           : L R C LFE Ls Rs Lb Rb
  113. Sampling rate                            : 48.0 kHz
  114. Frame rate                               : 31.250 FPS (1536 SPF)
  115. Compression mode                         : Lossy
  116. Stream size                              : 596 MiB (1%)
  117. Title                                    : DDP 7.1
  118. Language                                 : Spanish
  119. Service kind                             : Complete Main
  120. Default                                  : No
  121. Forced                                   : No

  122. Audio #5
  123. ID                                       : 6
  124. ID in the original source medium         : 4353 (0x1101)
  125. Format                                   : AC-3
  126. Format/Info                              : Audio Coding 3
  127. Commercial name                          : Dolby Digital
  128. Codec ID                                 : A_AC3
  129. Duration                                 : 1 h 48 min
  130. Bit rate mode                            : Constant
  131. Bit rate                                 : 448 kb/s
  132. Channel(s)                               : 6 channels
  133. Channel layout                           : L R C LFE Ls Rs
  134. Sampling rate                            : 48.0 kHz
  135. Frame rate                               : 31.250 FPS (1536 SPF)
  136. Compression mode                         : Lossy
  137. Stream size                              : 348 MiB (0%)
  138. Title                                    : DD 5.1
  139. Language                                 : Spanish
  140. Service kind                             : Complete Main
  141. Default                                  : No
  142. Forced                                   : No
  143. Original source medium                   : Blu-ray

  144. Audio #6
  145. ID                                       : 7
  146. ID in the original source medium         : 4354 (0x1102)
  147. Format                                   : AC-3
  148. Format/Info                              : Audio Coding 3
  149. Commercial name                          : Dolby Digital
  150. Codec ID                                 : A_AC3
  151. Duration                                 : 1 h 48 min
  152. Bit rate mode                            : Constant
  153. Bit rate                                 : 640 kb/s
  154. Channel(s)                               : 6 channels
  155. Channel layout                           : L R C LFE Ls Rs
  156. Sampling rate                            : 48.0 kHz
  157. Frame rate                               : 31.250 FPS (1536 SPF)
  158. Compression mode                         : Lossy
  159. Stream size                              : 496 MiB (1%)
  160. Title                                    : DD 5.1
  161. Language                                 : French
  162. Service kind                             : Complete Main
  163. Default                                  : No
  164. Forced                                   : No
  165. Original source medium                   : Blu-ray

  166. Text #1
  167. ID                                       : 8
  168. Format                                   : UTF-8
  169. Codec ID                                 : S_TEXT/UTF8
  170. Codec ID/Info                            : UTF-8 Plain Text
  171. Duration                                 : 1 h 43 min
  172. Bit rate                                 : 53 b/s
  173. Count of elements                        : 1272
  174. Stream size                              : 40.1 KiB (0%)
  175. Title                                    : SRT
  176. Language                                 : English
  177. Default                                  : Yes
  178. Forced                                   : No

  179. Text #2
  180. ID                                       : 9
  181. Format                                   : UTF-8
  182. Codec ID                                 : S_TEXT/UTF8
  183. Codec ID/Info                            : UTF-8 Plain Text
  184. Duration                                 : 1 h 43 min
  185. Bit rate                                 : 58 b/s
  186. Count of elements                        : 1408
  187. Stream size                              : 44.3 KiB (0%)
  188. Title                                    : SDH SRT
  189. Language                                 : English
  190. Default                                  : No
  191. Forced                                   : No

  192. Text #3
  193. ID                                       : 10
  194. ID in the original source medium         : 4768 (0x12A0)
  195. Format                                   : PGS
  196. Muxing mode                              : zlib
  197. Codec ID                                 : S_HDMV/PGS
  198. Codec ID/Info                            : Picture based subtitle format used on BDs/HD-DVDs
  199. Duration                                 : 1 h 43 min
  200. Bit rate                                 : 40.7 kb/s
  201. Count of elements                        : 2830
  202. Stream size                              : 30.1 MiB (0%)
  203. Language                                 : English
  204. Default                                  : No
  205. Forced                                   : No
  206. Original source medium                   : Blu-ray

  207. Text #4
  208. ID                                       : 11
  209. ID in the original source medium         : 4769 (0x12A1)
  210. Format                                   : PGS
  211. Muxing mode                              : zlib
  212. Codec ID                                 : S_HDMV/PGS
  213. Codec ID/Info                            : Picture based subtitle format used on BDs/HD-DVDs
  214. Duration                                 : 1 h 47 min
  215. Bit rate                                 : 34.0 kb/s
  216. Count of elements                        : 2599
  217. Stream size                              : 26.2 MiB (0%)
  218. Language                                 : Spanish
  219. Default                                  : No
  220. Forced                                   : No
  221. Original source medium                   : Blu-ray

  222. Text #5
  223. ID                                       : 12
  224. ID in the original source medium         : 4770 (0x12A2)
  225. Format                                   : PGS
  226. Muxing mode                              : zlib
  227. Codec ID                                 : S_HDMV/PGS
  228. Codec ID/Info                            : Picture based subtitle format used on BDs/HD-DVDs
  229. Duration                                 : 1 h 47 min
  230. Bit rate                                 : 35.1 kb/s
  231. Count of elements                        : 2486
  232. Stream size                              : 27.0 MiB (0%)
  233. Language                                 : French
  234. Default                                  : No
  235. Forced                                   : No
  236. Original source medium                   : Blu-ray

  237. Text #6
  238. ID                                       : 13
  239. ID in the original source medium         : 4771 (0x12A3)
  240. Format                                   : PGS
  241. Muxing mode                              : zlib
  242. Codec ID                                 : S_HDMV/PGS
  243. Codec ID/Info                            : Picture based subtitle format used on BDs/HD-DVDs
  244. Duration                                 : 17 min 15 s
  245. Bit rate                                 : 1 270 b/s
  246. Count of elements                        : 10
  247. Stream size                              : 161 KiB (0%)
  248. Title                                    : FORCED
  249. Language                                 : Spanish
  250. Default                                  : No
  251. Forced                                   : No
  252. Original source medium                   : Blu-ray

  253. Text #7
  254. ID                                       : 14
  255. ID in the original source medium         : 4772 (0x12A4)
  256. Format                                   : PGS
  257. Muxing mode                              : zlib
  258. Codec ID                                 : S_HDMV/PGS
  259. Codec ID/Info                            : Picture based subtitle format used on BDs/HD-DVDs
  260. Duration                                 : 1 h 47 min
  261. Bit rate                                 : 129 b/s
  262. Count of elements                        : 10
  263. Stream size                              : 102 KiB (0%)
  264. Title                                    : FORCED
  265. Language                                 : French
  266. Default                                  : No
  267. Forced                                   : No
  268. Original source medium                   : Blu-ray

  269. Menu
  270. 00:00:00.000                             : en:Chapter 01
  271. 00:05:50.099                             : en:Chapter 02
  272. 00:13:46.617                             : en:Chapter 03
  273. 00:18:35.447                             : en:Chapter 04
  274. 00:23:05.675                             : en:Chapter 05
  275. 00:28:32.669                             : en:Chapter 06
  276. 00:32:43.419                             : en:Chapter 07
  277. 00:38:01.654                             : en:Chapter 08
  278. 00:43:25.728                             : en:Chapter 09
  279. 00:47:54.162                             : en:Chapter 10
  280. 00:53:05.640                             : en:Chapter 11
  281. 01:01:32.939                             : en:Chapter 12
  282. 01:05:11.365                             : en:Chapter 13
  283. 01:08:52.336                             : en:Chapter 14
  284. 01:12:43.901                             : en:Chapter 15
  285. 01:18:59.484                             : en:Chapter 16
  286. 01:23:29.796                             : en:Chapter 17
  287. 01:29:13.222                             : en:Chapter 18
  288. 01:34:26.285                             : en:Chapter 19
  289. 01:41:17.988                             : en:Chapter 20
复制代码




                                       
                                       

                                       
                                       
                                       




Old.2021.2160p.BluRay.REMUX.HEVC.DTS-HD.MA.TrueHD.7.1.Atmos-FGT.torrent (87.5 KB, 下载次数: 2)
回复

使用道具 举报

您需要登录后才可以回帖 登录 | 立即注册

本版积分规则

QQ|Archiver|手机版|小黑屋|蓝光电影网

GMT+8, 2021-12-9 11:24 , Processed in 0.051899 second(s), 28 queries .

Powered by Discuz! X3.4

Copyright © 2001-2020, Tencent Cloud.

快速回复 返回顶部 返回列表