找回密码
 立即注册

QQ登录

只需一步,快速开始

查看: 35|回复: 0

[惊悚片] 夜间小屋/夜之屋 The.Night.House.2020.720p.BluRay.x264-PiGNUS 4.46GB

[复制链接]

0

精华

0

好友

1

听众

新手上路

Rank: 2

蓝光币
5
发表于 2021-10-22 08:31:59 | 显示全部楼层 |阅读模式


◎译  名 夜间小屋/夜之屋/夜屋/鬼屋
◎片  名 The Night House
◎年  代 2020
◎产  地 英国,美国
◎类  别 惊悚 / 恐怖
◎语  言 英语
◎上映日期 2020-01-24(圣丹斯电影节) / 2021-08-20(美国)
◎豆瓣评分 6.4/10 from 6534 users
◎豆瓣链接 https://movie.douban.com/subject/30323687/
◎片  长 107分钟
◎导  演 大卫·布鲁克纳 David Bruckner
◎编  剧 本·柯林斯 Ben Collins / 卢克·皮厄特罗斯基 Luke Piotrowski
◎主  演 丽贝卡·豪尔 Rebecca Hall
       萨拉·古德伯格 Sarah Goldberg
       沃迪·科蒂斯·霍尔 Vondie Curtis-Hall
       伊万·乔尼凯特 Evan Jonigkeit
       斯塔西·马汀 Stacy Martin
       大卫·埃伯利斯 David Abeles
       克里斯蒂娜·杰克逊 Christina Jackson
       帕特里克·克莱因 Patrick Klein
       克里斯托·斯旺 Crystal Swann
       劳拉·奥斯丁 Laura Austin
       雅各布·加勒特·怀特 Jacob Garrett White
       萨曼莎·布克 Samantha Buck
       莉·恩斯林 Lea Enslin
◎标  签 恐怖 | 惊悚 | 美国 | 悬疑 | 灵异 | 超自然 | 2021 | 鬼屋
◎简  介


  贝丝(丽贝卡·豪尔 Rebecca Hall饰)在先生欧文(伊万·乔尼凯特 Evan Jonigkeit饰)过世后,独自住在先生生前为她所建造的湖边小屋中,虽然她努力维持正常的生活,但恶梦仍朝她袭来,她感受到屋内似乎有一些不寻常的动静,而在朋友的建议下试图从先生的遗物中 找寻答案,于是她决心解开这令人不安的秘密……
  1. Video
  2. ID                                       : 1
  3. Format                                   : AVC
  4. Format/Info                              : Advanced Video Codec
  5. Format profile                           : [email protected]
  6. Format settings                          : CABAC / 8 Ref Frames
  7. Format settings, CABAC                   : Yes
  8. Format settings, Reference frames        : 8 frames
  9. Codec ID                                 : V_MPEG4/ISO/AVC
  10. Duration                                 : 1 h 47 min
  11. Bit rate                                 : 5 301 kb/s
  12. Width                                    : 1 280 pixels
  13. Height                                   : 534 pixels
  14. Display aspect ratio                     : 2.40:1
  15. Frame rate mode                          : Constant
  16. Frame rate                               : 23.976 (24000/1001/189150) FPS
  17. Color space                              : YUV
  18. Chroma subsampling                       : 4:2:0
  19. Bit depth                                : 8 bits
  20. Scan type                                : Progressive
  21. Bits/(Pixel*Frame)                       : 0.323
  22. Stream size                              : 3.96 GiB (89%)
  23. Writing library                          : x264 core 164 r3075 66a5bc1
  24. Encoding settings                        : cabac=1 / ref=8 / deblock=1:-3:-3 / analyse=0x3:0x133 / me=umh / subme=9 / psy=1 / psy_rd=1.00:0.00 / mixed_ref=1 / me_range=16 / chroma_me=1 / trellis=2 / 8x8dct=1 / cqm=0 / deadzone=21,11 / fast_pskip=1 / chroma_qp_offset=-2 / threads=17 / lookahead_threads=1 / sliced_threads=0 / nr=0 / decimate=1 / interlaced=0 / bluray_compat=0 / constrained_intra=0 / bframes=3 / b_pyramid=2 / b_adapt=2 / b_bias=0 / direct=3 / weightb=1 / open_gop=0 / weightp=2 / keyint=250 / keyint_min=23 / scenecut=40 / intra_refresh=0 / rc_lookahead=60 / rc=crf / mbtree=1 / crf=14.5 / qcomp=0.60 / qpmin=0 / qpmax=69 / qpstep=4 / ip_ratio=1.40 / aq=1:1.00
  25. Default                                  : Yes
  26. Forced                                   : No

  27. Audio
  28. ID                                       : 2
  29. Format                                   : AC-3
  30. Format/Info                              : Audio Coding 3
  31. Commercial name                          : Dolby Digital
  32. Codec ID                                 : A_AC3
  33. Duration                                 : 1 h 47 min
  34. Bit rate mode                            : Constant
  35. Bit rate                                 : 640 kb/s
  36. Channel(s)                               : 6 channels
  37. Channel layout                           : L R C LFE Ls Rs
  38. Sampling rate                            : 48.0 kHz
  39. Frame rate                               : 31.250 FPS (1536 SPF)
  40. Compression mode                         : Lossy
  41. Stream size                              : 490 MiB (11%)
  42. Language                                 : English
  43. Service kind                             : Complete Main
  44. Default                                  : Yes
  45. Forced                                   : No

  46. Text #1
  47. ID                                       : 3
  48. Format                                   : PGS
  49. Muxing mode                              : zlib
  50. Codec ID                                 : S_HDMV/PGS
  51. Codec ID/Info                            : Picture based subtitle format used on BDs/HD-DVDs
  52. Duration                                 : 1 h 40 min
  53. Bit rate                                 : 29.0 kb/s
  54. Count of elements                        : 2342
  55. Stream size                              : 20.9 MiB (0%)
  56. Title                                    : English SDH
  57. Language                                 : English
  58. Default                                  : No
  59. Forced                                   : No

  60. Text #2
  61. ID                                       : 4
  62. Format                                   : PGS
  63. Muxing mode                              : zlib
  64. Codec ID                                 : S_HDMV/PGS
  65. Codec ID/Info                            : Picture based subtitle format used on BDs/HD-DVDs
  66. Duration                                 : 1 h 44 min
  67. Bit rate                                 : 16.4 kb/s
  68. Count of elements                        : 1496
  69. Stream size                              : 12.3 MiB (0%)
  70. Title                                    : French
  71. Language                                 : French
  72. Default                                  : No
  73. Forced                                   : No

  74. Text #3
  75. ID                                       : 5
  76. Format                                   : PGS
  77. Muxing mode                              : zlib
  78. Codec ID                                 : S_HDMV/PGS
  79. Codec ID/Info                            : Picture based subtitle format used on BDs/HD-DVDs
  80. Duration                                 : 1 h 39 min
  81. Bit rate                                 : 19.3 kb/s
  82. Count of elements                        : 1628
  83. Stream size                              : 13.7 MiB (0%)
  84. Title                                    : Spanish
  85. Language                                 : Spanish
  86. Default                                  : No
  87. Forced                                   : No

  88. Text #4
  89. ID                                       : 6
  90. Format                                   : PGS
  91. Muxing mode                              : zlib
  92. Codec ID                                 : S_HDMV/PGS
  93. Codec ID/Info                            : Picture based subtitle format used on BDs/HD-DVDs
  94. Duration                                 : 1 h 32 min
  95. Bit rate                                 : 205 b/s
  96. Count of elements                        : 14
  97. Stream size                              : 139 KiB (0%)
  98. Title                                    : French
  99. Language                                 : French
  100. Default                                  : No
  101. Forced                                   : No

  102. Text #5
  103. ID                                       : 7
  104. Format                                   : PGS
  105. Muxing mode                              : zlib
  106. Codec ID                                 : S_HDMV/PGS
  107. Codec ID/Info                            : Picture based subtitle format used on BDs/HD-DVDs
  108. Duration                                 : 1 h 25 min
  109. Bit rate                                 : 286 b/s
  110. Count of elements                        : 24
  111. Stream size                              : 179 KiB (0%)
  112. Title                                    : Spanish
  113. Language                                 : Spanish
  114. Default                                  : No
  115. Forced                                   : No

  116. Menu
  117. 00:00:00.000                             : en:Chapter 01
  118. 00:03:41.388                             : en:Chapter 02
  119. 00:08:08.780                             : en:Chapter 03
  120. 00:15:38.271                             : en:Chapter 04
  121. 00:21:15.483                             : en:Chapter 05
  122. 00:24:03.609                             : en:Chapter 06
  123. 00:33:32.636                             : en:Chapter 07
  124. 00:38:48.117                             : en:Chapter 08
  125. 00:42:51.778                             : en:Chapter 09
  126. 00:47:48.699                             : en:Chapter 10
  127. 00:52:50.250                             : en:Chapter 11
  128. 00:56:07.239                             : en:Chapter 12
  129. 01:00:40.804                             : en:Chapter 13
  130. 01:05:21.251                             : en:Chapter 14
  131. 01:09:02.847                             : en:Chapter 15
  132. 01:14:59.453                             : en:Chapter 16
  133. 01:18:13.022                             : en:Chapter 17
  134. 01:23:28.879                             : en:Chapter 18
  135. 01:27:40.297                             : en:Chapter 19
  136. 01:32:13.862                             : en:Chapter 20
  137. 01:33:52.919                             : en:Chapter 21
  138. 01:35:02.363                             : en:Chapter 22
  139. 01:39:19.537                             : en:Chapter 23
  140. 01:41:26.580                             : en:Chapter 24
  141. 01:47:01.498                             : en:Chapter 25
复制代码





                                       
                                       

                                       
                                       
                                       




The.Night.House.2020.720p.BluRay.x264-PiGNUS.torrent (23.05 KB, 下载次数: 0)
回复

使用道具 举报

您需要登录后才可以回帖 登录 | 立即注册

本版积分规则

QQ|Archiver|手机版|小黑屋|蓝光电影网

GMT+8, 2021-12-9 11:13 , Processed in 0.053064 second(s), 28 queries .

Powered by Discuz! X3.4

Copyright © 2001-2020, Tencent Cloud.

快速回复 返回顶部 返回列表