找回密码
 立即注册

QQ登录

只需一步,快速开始

查看: 1407|回复: 7

[2160p] 星球大战8:最后的绝地武士.Star.Wars.The.Last.Jedi.2017.4K.2160p.TrueHD.Dolby.Atmos-MassModz 72.58GB

[复制链接]

0

精华

0

好友

2

听众

实习版主

Rank: 7Rank: 7Rank: 7

蓝光币
5
发表于 2023-7-14 00:28:12 | 显示全部楼层 |阅读模式


◎译  名 星球大战8:最后的绝地武士 / 星球大战:最后绝地武士(港) / 星球大战8 / 星战8 / Star Wars: Episode VIII / Star Wars: Episode VIII - The Last Jedi
◎片  名 Star Wars: The Last Jedi
◎年  代 2017
◎产  地 美国
◎类  别 动作 / 科幻 / 冒险
◎语  言 英语
◎上映日期 2017-12-15(美国) / 2018-01-05(中国大陆)
◎IMDb评星  ★★★★★★★☆☆☆
◎IMDb评分  6.9/10 from 650,774 users
◎IMDb链接  https://www.imdb.com/title/tt2527336/
◎豆瓣评星 ★★★✦☆
◎豆瓣评分 7.1/10 from 151,749 users
◎豆瓣链接 https://movie.douban.com/subject/22265634/
◎片  长 152分钟
◎导  演 莱恩·约翰逊 / Rian Johnson
◎演  员 马克·哈米尔 / Mark Hamill | 饰 卢克·天行者 Luke Skywalker
      凯丽·费雪 / Carrie Fisher | 饰 莱娅公主 Leia
      黛西·雷德利 / Daisy Ridley | 饰 雷伊 Rey
      亚当·德赖弗 / Adam Driver | 饰 凯洛·伦 Kylo Ren
      约翰·博耶加 / John Boyega | 饰 芬恩 Finn
      奥斯卡·伊萨克 / Oscar Isaac | 饰 波·达默龙 Poe Dameron
      安迪·瑟金斯 / Andy Serkis | 饰 斯努克 Supreme Leader Snoke
      露皮塔·尼永奥 / Lupita Nyong'o | 饰 玛兹·卡纳塔 Maz Kanata
      多姆纳尔·格里森 / Domhnall Gleeson | 饰 赫克斯将军 General Hux
      安东尼·丹尼尔斯 / Anthony Daniels | 饰 C-3PO
      格温多兰·克里斯蒂 / Gwendoline Christie | 饰 法斯马上尉 Captain Phasma
      凯莉·玛丽·陈 / Kelly Marie Tran | 饰 罗丝·蒂科 Rose Tico
      劳拉·邓恩 / Laura Dern | 饰 阿米琳·霍尔多 Vice Admiral Amilyn Holdo
      本尼西奥·德尔·托罗 / Benicio del Toro | 饰 DJ
      弗兰克·奥兹 / Frank Oz | 配 尤达大师 Yoda
      比莉·洛德 / Billie Lourd | 饰 中尉科尼克斯 Lieutenant Connix
      阿曼达·劳伦斯 / Amanda Lawrence | 饰 Commander D'Acy
      吉米·维 / Jimmy Vee | 饰 R2-D2
      贾斯汀·塞洛克斯 / Justin Theroux | 饰 Master Codebreaker
      蒂姆·罗斯 / Tim Rose | 饰 Admiral Ackbar
      汤姆·凯恩 / Tom Kane
      亚德里安·埃德蒙松 / Adrian Edmondson | 饰 Captain Peavey
      马克·路易斯·琼斯 / Mark Lewis Jones | 饰 卡纳迪上尉 Captain Canady
      赫敏·科菲尔德 / Hermione Corfield | 饰 塔莉 Tallie Lintra
      吴青芸 / Thanh Van Ngo | 饰 Paige Tico
      诺阿·西甘 / Noah Segan | 饰 X-Wing Pilot Starck
      保罗·卡塞 / Paul Kasey | 饰 C'ai Threnalli
      米凯拉·科尔 / Michaela Coel | 饰 Resistance Monitor
      普莉安卡·伯福德 / Priyanga Burford | 饰 Resistance Medical Officer
      纳温·乔杜里 / Navin Chowdhry | 饰 Resistance Cargo Pilot
      安德鲁·杰克 / Andrew Jack
      克里斯塔·克拉克 / Crystal Clarke | 饰 运输机飞行员 Resistance Transport Pilot
      伊川东吾 / Togo Igawa | 饰 电阻桥官 Resistance Bridge Officer
      丹尼·萨帕尼 / Danny Sapani | 饰 Medical Frigate Captain
      基兰·沙阿 / Kiran Shah | 饰 Neepers Panpick
      莉莉·科尔 / Lily Cole | 饰 Party Girl Lovey
      马修·夏普 / Matthew Sharp | 饰 Resistance Trench Sergeant 'Salty'
      安迪·尼曼 / Andy Nyman | 饰 Jail Guard
      迈克尔·吉普森 / Michael Jibson | 饰 Kylo's Shuttle Pilot
      拉尔夫·伊内森 / Ralph Ineson | 饰 Senior First Order Officer
      凯特·迪基 / Kate Dickie | 饰 Hux's First Order Monitor
      杰拉德·摩纳科 / Gerard Monaco | 饰 First Order Commander
      杰克·格林利斯 / Jack Greenlees | 饰 Resistance Evacuation Officer
      蒂姆·斯蒂德 / Tim Steed | 饰 Holdo's First Officer
      奥赖恩·李 / Orion Lee
      杨亮 / Liang Yang | 饰 Praetorian Guard
      埃德加·赖特 / Edgar Wright | 饰 抵抗部队士兵 Resistance Trooper uncredited
      乔纳森·哈登 / Jonathan Harden | 饰 Resistance Monitor
      阿米拉·加扎拉 / Amira Ghazalla | 饰 Canady's First Order Commander
      保罗·巴泽利 / Paul Bazely | 饰 Hux's First Order Officer
      特米尔兰·巴拉耶夫 / Temirlan Blaev | 饰 Stable Boy
      乔纳斯·索塔莫 / Joonas Suotamo | 饰 楚巴卡 Chewbacca
      肖娜·麦克唐纳 / Shauna Macdonald | 饰 Temporary Command Center Resistance Pilot
      西蒙·洛 / Simon Lowe | 饰 Resistance Hangar Captain
      加里斯·爱德华斯 / Gareth Edwards | 饰 抵抗战士 Resistance Fighter
      沃维克·戴维斯 / Warwick Davis | 饰 沃迪宾 Wodibin
      约瑟夫·高登-莱维特 / Joseph Gordon-Levitt | 饰 斯洛文·罗 Slowen Lo
      休·斯金纳 / Hugh Skinner | 饰 Holdo's First Officer
      阿克谢·库玛尔 / Akshay Kumar | 饰 一级监控 First Order Monitor
◎编  剧 莱恩·约翰逊 / Rian Johnson
      乔治·卢卡斯 / George Lucas
◎制  片  人 拉姆·伯格曼 / Ram Bergman
      J·J·艾布拉姆斯 / J.J. Abrams
      凯瑟琳·肯尼迪 / Kathleen Kennedy
◎音  乐 约翰·威廉姆斯 / John Williams
◎摄  影 史蒂夫·耶德林 / Steve Yedlin
◎剪  辑 鲍勃·达克萨 / Bob Ducsay
◎美  术 弗格斯·克莱格 / Fergus Clegg
◎服  装 迈克尔·卡普兰 / Michael Kaplan
◎制片管理  Mike Lane
◎视觉特效 瑞恩·艾伦 / Ryan Allen
      米格尔·A·萨莱克 / Miguel A. Salek
      迈克尔·马尔霍兰 / Michael Mulholland
◎动作特技 杨亮 / Liang Yang
◎简  介 
  邪恶的斯努克所率领的第一秩序正以前所未有的破坏力扫荡抵抗者组织最后的力量。几经辗转,蕾伊(黛西·雷德利 Daisy Ridley 饰)终于在银河一隅找到隐居的卢克·天行者(马克·哈米尔 Mark Hamill 饰),与此同时她自身的力量也正慢慢苏醒。遭到重创的抵抗者命悬一线,为了摆脱第一秩序的追杀,芬恩(约翰·博耶加 John Boyega 饰)和萝丝(凯莉·玛丽·陈 Kelly Marie Tran 饰)逃出主舰,试图找到能令他们起死回生的人物,而好逞英雄的波(奥斯卡·伊萨克 Oscar Isaac 饰)则留下来见证着抵抗者最为危机和绝望的时刻。
  另一方面,凯洛·伦(亚当·德赖弗 Adam Driver 饰)和蕾伊的精神世界意外连通,他终将和自己的恩师卢克迎来决算的时刻……
◎获奖情况 
  第90届奥斯卡金像奖 (2018)
  最佳视觉效果(提名) 尼尔·斯坎伦,本·莫里斯,克里斯·考博德,迈克尔·马尔霍兰
  最佳混音(提名) 伦·克斯,斯图尔特·威尔逊,大卫·帕克,迈克尔·斯曼内科
  最佳音效剪辑(提名) 伦·克斯,马修·伍德
  最佳原创配乐(提名) 约翰·威廉姆斯
  第71届英国电影学院奖 (2018)
  电影奖 最佳特殊视觉效果(提名)
  电影奖 最佳音效(提名)
  第27届MTV电影奖 (2018)
  MTV电影奖 最佳表演(提名) 黛西·雷德利
  MTV电影奖 最佳反派(提名) 亚当·德赖弗
  MTV电影奖 最佳英雄形象(提名) 黛西·雷德利
  第22届美国艺术指导工会奖 (2018)
  电影奖 最佳幻想电影艺术指导(提名)
  第20届美国服装设计工会奖 (2018)
  科幻/奇幻题材电影最佳服装设计(提名) 迈克尔·卡普兰
  第16届美国视觉效果协会奖 (2018)
  最佳特效电影视觉效果(提名)
  最佳电影虚拟摄影(提名)
  最佳真人电影模拟动画效果(提名)
  第54届美国声音效果协会奖 (2018)
  真人电影最佳音效(提名)
  1. Video
  2. ID: 1
  3. Format: AVC
  4. Format/Info: Advanced Video Codec
  5. Format profile: High@L5.1
  6. Format settings: CABAC / 5 Ref Frames
  7. Format settings, CABAC: Yes
  8. Format settings, Reference frames: 5 frames
  9. Codec ID: V_MPEG4/ISO/AVC
  10. Duration: 2 h 31 min
  11. Bit rate: 60.6 Mb/s
  12. Width: 3840 pixels
  13. Height: 1608 pixels
  14. Display aspect ratio: 2.40:1
  15. Frame rate mode: Constant
  16. Frame rate: 23.976 (24000/1001) FPS
  17. Color space: YUV
  18. Chroma subsampling: 4:2:0
  19. Bit depth: 8 bits
  20. Scan type: Progressive
  21. Bits/(Pixel*Frame): 0.409
  22. Stream size: 64.3 GiB (89%)
  23. Title: Star.Wars.The.Last.Jedi.2017.4K.2160p.TrueHD.Dolby.Atmos-MassModz
  24. Writing library: x264 core 148 r2748 97eaef2
  25. Encoding settings : cabac=1 / ref=5 / deblock=1:-1:-1 / analyse=0x3:0x113 / me=umh / subme=10 / psy=1 / psy_rd=1.00:0.15 / mixed_ref=1 / me_range=48 / chroma_me=1 / trellis=2 / 8x8dct=1 / cqm=0 / deadzone=21,11 / fast_pskip=1 / chroma_qp_offset=-3 / threads=50 / lookahead_threads=4 / sliced_threads=0 / nr=0 / decimate=0 / interlaced=0 / bluray_compat=0 / constrained_intra=0 / bframes=3 / b_pyramid=2 / b_adapt=2 / b_bias=0 / direct=3 / weightb=1 / open_gop=0 / weightp=2 / keyint=250 / keyint_min=23 / scenecut=40 / intra_refresh=0 / rc_lookahead=50 / rc=crf / mbtree=1 / crf=18.0 / qcomp=0.60 / qpmin=0 / qpmax=69 / qpstep=4 / ip_ratio=1.40 / aq=1:1.00
  26. Language: English
  27. Default: Yes
  28. Forced: No
  29. Audio #1
  30. ID: 2
  31. Format: MLP FBA 16-ch
  32. Format/Info: Meridian Lossless Packing FBA with 16-channel presentation
  33. Commercial name: Dolby TrueHD with Dolby Atmos
  34. Codec ID: A_TRUEHD
  35. Duration: 2 h 31 min
  36. Bit rate mode: Variable
  37. Bit rate: 3 941 kb/s
  38. Maximum bit rate: 5 853 kb/s
  39. Channel(s): 8 channels
  40. Channel layout: L R C LFE Ls Rs Lb Rb
  41. Sampling rate: 48.0 kHz
  42. Frame rate: 1 200.000 FPS (40 SPF)
  43. Compression mode: Lossless
  44. Delay relative to video: 32 ms
  45. Stream size: 4.18 GiB (6%)
  46. Title: Star.Wars.The.Last.Jedi.2017.4K.2160p.TrueHD.Dolby.Atmos-MassModz.mkv
  47. Language: English
  48. Default: Yes
  49. Forced: No
  50. Number of dynamic objects: 13
  51. Bed channel count: 1 channel
  52. Bed channel configuration: LFE
  53. Audio #2
  54. ID: 3
  55. Format: DTS XLL
  56. Format/Info: Digital Theater Systems
  57. Commercial name: DTS-HD Master Audio
  58. Codec ID: A_DTS
  59. Duration: 2 h 31 min
  60. Bit rate mode: Variable
  61. Bit rate: 3 163 kb/s
  62. Channel(s): 8 channels
  63. Channel layout: C L R LFE Lb Rb Lss Rss
  64. Sampling rate: 48.0 kHz
  65. Frame rate: 93.750 FPS (512 SPF)
  66. Bit depth: 24 bits
  67. Compression mode: Lossless
  68. Stream size: 3.35 GiB (5%)
  69. Title: Star.Wars.The.Last.Jedi.2017.4K.2160p.TrueHD.Dolby.Atmos-MassModz.mkv
  70. Language: English
  71. Default: No
  72. Forced: No
  73. Audio #3
  74. ID: 4
  75. Format: AC-3
  76. Format/Info: Audio Coding 3
  77. Commercial name: Dolby Digital
  78. Codec ID: A_AC3
  79. Duration: 2 h 31 min
  80. Bit rate mode: Constant
  81. Bit rate: 640 kb/s
  82. Channel(s): 6 channels
  83. Channel layout: L R C LFE Ls Rs
  84. Sampling rate: 48.0 kHz
  85. Frame rate: 31.250 FPS (1536 SPF)
  86. Compression mode: Lossy
  87. Delay relative to video: 31 ms
  88. Stream size: 695 MiB (1%)
  89. Title: Star.Wars.The.Last.Jedi.2017.4K.2160p.TrueHD.Dolby.Atmos-MassModz.mkv
  90. Language: English
  91. Service kind: Complete Main
  92. Default: No
  93. Forced: No
  94. Subtitle #1
  95. ID: 5
  96. Format: UTF-8
  97. Codec ID: S_TEXT/UTF8
  98. Codec ID/Info: UTF-8 Plain Text
  99. Duration: 2 h 23 min
  100. Bit rate: 45 b/s
  101. Frame rate: 0.221 FPS
  102. Count of elements: 1898
  103. Stream size: 47.9 KiB (0%)
  104. Title: English-SRT
  105. Language: English
  106. Default: Yes
  107. Forced: No
  108. Subtitle #2
  109. ID: 6
  110. Format: PGS
  111. Muxing mode: zlib
  112. Codec ID: S_HDMV/PGS
  113. Codec ID/Info: Picture based subtitle format used on BDs/HD-DVDs
  114. Duration: 2 h 23 min
  115. Bit rate: 30.9 kb/s
  116. Frame rate: 0.441 FPS
  117. Count of elements: 3796
  118. Stream size: 31.7 MiB (0%)
  119. Title: English-PGS
  120. Language: English
  121. Default: No
  122. Forced: No
  123. Subtitle #3
  124. ID: 7
  125. Format: PGS
  126. Muxing mode: zlib
  127. Codec ID: S_HDMV/PGS
  128. Codec ID/Info: Picture based subtitle format used on BDs/HD-DVDs
  129. Duration: 2 h 22 min
  130. Bit rate: 25.7 kb/s
  131. Frame rate: 0.372 FPS
  132. Count of elements: 3182
  133. Stream size: 26.3 MiB (0%)
  134. Title: Spanish-PGS
  135. Language: Spanish
  136. Default: No
  137. Forced: No
  138. Menu
  139. 00:00:00.000: en:Chapter 1
  140. 00:00:18.643: en:Chapter 2
  141. 00:01:45.730: en:Chapter 3
  142. 00:03:11.816: en:Chapter 4
  143. 00:07:43.296: en:Chapter 5
  144. 00:12:48.434: en:Chapter 6
  145. 00:13:44.573: en:Chapter 7
  146. 00:16:29.279: en:Chapter 8
  147. 00:19:59.281: en:Chapter 9
  148. 00:22:51.369: en:Chapter 10
  149. 00:26:04.980: en:Chapter 11
  150. 00:27:22.849: en:Chapter 12
  151. 00:31:24.757: en:Chapter 13
  152. 00:32:54.681: en:Chapter 14
  153. 00:35:27.667: en:Chapter 15
  154. 00:38:11.497: en:Chapter 16
  155. 00:41:53.427: en:Chapter 17
  156. 00:44:29.541: en:Chapter 18
  157. 00:46:51.475: en:Chapter 19
  158. 00:51:41.932: en:Chapter 20
  159. 00:53:50.060: en:Chapter 21
  160. 00:55:41.504: en:Chapter 22
  161. 00:57:39.581: en:Chapter 23
  162. 00:59:16.636: en:Chapter 24
  163. 01:02:05.847: en:Chapter 25
  164. 01:03:07.700: en:Chapter 26
  165. 01:05:41.729: en:Chapter 27
  166. 01:07:03.477: en:Chapter 28
  167. 01:10:25.721: en:Chapter 29
  168. 01:13:30.322: en:Chapter 30
  169. 01:17:43.450: en:Chapter 31
  170. 01:20:53.056: en:Chapter 32
  171. 01:24:17.969: en:Chapter 33
  172. 01:26:23.219: en:Chapter 34
  173. 01:27:59.524: en:Chapter 35
  174. 01:30:49.360: en:Chapter 36
  175. 01:32:54.568: en:Chapter 37
  176. 01:35:53.706: en:Chapter 38
  177. 01:37:10.616: en:Chapter 39
  178. 01:39:12.863: en:Chapter 40
  179. 01:42:07.663: en:Chapter 41
  180. 01:45:03.714: en:Chapter 42
  181. 01:49:35.694: en:Chapter 43
  182. 01:52:20.608: en:Chapter 44
  183. 01:56:04.749: en:Chapter 45
  184. 01:58:52.083: en:Chapter 46
  185. 02:03:11.133: en:Chapter 47
  186. 02:06:39.758: en:Chapter 48
  187. 02:11:43.604: en:Chapter 49
  188. 02:15:12.103: en:Chapter 50
  189. 02:20:16.699: en:Chapter 51
  190. 02:23:39.694: en:Chapter 52
复制代码









Star.Wars.The.Last.Jedi.2017.4K.2160p.TrueHD.Dolby.Atmos-MassModz.mkv.torrent (364 KB, 下载次数: 6)
回复

使用道具 举报

0

精华

0

好友

0

听众

新手上路

Rank: 1

蓝光币
0
发表于 2023-7-14 15:01:58 | 显示全部楼层
不错,谢谢分享!!!!!!!!!!!!!!!!!!!
回复

使用道具 举报

0

精华

0

好友

2

听众

新手上路

Rank: 1

蓝光币
0
发表于 2023-7-16 01:48:47 | 显示全部楼层
不错,谢谢分享!!!!!!!!!!!!!!!!!!!
回复

使用道具 举报

0

精华

0

好友

1

听众

新手上路

Rank: 1

蓝光币
0
发表于 2023-7-16 22:11:41 | 显示全部楼层
很好~~谢谢楼主
回复

使用道具 举报

0

精华

0

好友

4

听众

新手上路

Rank: 1

蓝光币
0
发表于 2023-7-21 00:37:09 | 显示全部楼层
绝地武士 谢谢分享
回复

使用道具 举报

0

精华

0

好友

2

听众

新手上路

Rank: 1

蓝光币
0
发表于 2023-7-21 12:47:51 | 显示全部楼层
非常好,感谢。
回复

使用道具 举报

0

精华

0

好友

0

听众

新手上路

Rank: 1

蓝光币
0
发表于 2023-7-23 09:38:04 | 显示全部楼层
这个 电影不错,70多个G,看的真爽,影响与音效太棒了,值的推荐
回复

使用道具 举报

0

精华

0

好友

2

听众

新手上路

Rank: 1

蓝光币
0
发表于 2023-7-27 19:57:51 | 显示全部楼层
感谢楼主
回复

使用道具 举报

您需要登录后才可以回帖 登录 | 立即注册

本版积分规则

QQ|Archiver|手机版|小黑屋|蓝光电影网

GMT+8, 2024-7-24 19:24 , Processed in 0.089843 second(s), 30 queries .

Powered by Discuz! X3.4

Copyright © 2001-2020, Tencent Cloud.

快速回复 返回顶部 返回列表