找回密码
 立即注册

QQ登录

只需一步,快速开始

查看: 1159|回复: 5

[2160p-WEB] 变形金刚:超能勇士崛起.Transformers.Rise.Of.The.Beasts.2023.2160p.Dolby.Vision.Multi.Sub.DDP5.1.Atmos.DV.x265.MP4-BEN.THE.MEN 13.48GB

[复制链接]

0

精华

0

好友

2

听众

实习版主

Rank: 7Rank: 7Rank: 7

蓝光币
5
发表于 2023-7-12 02:59:48 | 显示全部楼层 |阅读模式


◎译  名 变形金刚:超能勇士崛起 / 变形金刚:狂兽崛起(港) / 变形金刚:万兽崛起(台) / 变形金刚7:超能勇士崛起 / 变形金刚7:群兽崛起 / 变形金刚7 / 真人版超能勇士
◎片  名 Transformers: Rise of the Beasts
◎年  代 2023
◎产  地 美国
◎类  别 动作 / 科幻 / 冒险
◎语  言 英语
◎上映日期 2023-06-06(韩国) / 2023-06-09(美国/中国大陆)
◎IMDb评星  ★★★★★★✦☆☆☆
◎IMDb评分  6.5/10 from 35,093 users
◎IMDb链接  https://www.imdb.com/title/tt5090568/
◎豆瓣评星 ★★★☆☆
◎豆瓣评分 6.2/10 from 104,046 users
◎豆瓣链接 https://movie.douban.com/subject/26634250/
◎片  长 127分钟 / 128分钟(中国大陆)
◎导  演 小斯蒂芬·卡普尔 / Steven Caple Jr.
◎演  员 安东尼·拉莫斯 / Anthony Ramos | 饰 诺亚·迪亚兹 Noah Diaz
      多米尼克·菲什巴克 / Dominique Fishback | 饰 埃琳娜·华莱士 Elena Wallace
      彼特·库伦 / Peter Cullen | 配 擎天柱 Optimus Prime
      朗·普尔曼 / Ron Perlman | 配 擎天圣 Optimus Primal
      彼特·丁拉基 / Peter Dinklage | 配 天灾 Scourge
      杨紫琼 / Michelle Yeoh | 配 飞箭勇士 Airazor
      皮特·戴维森 / Pete Davidson | 配 幻影 Mirage
      科尔曼·多明戈 / Colman Domingo | 配 宇宙大帝 Unicron
      丽兹·考什 / Liza Koshy | 配 阿尔茜 Arcee
      克里斯托·费尔南德斯 / Cristo Fernández | 配 千斤顶 Wheeljack
      MJ·罗德里格斯 / Mj Rodriguez | 配 夜莺 Nightbird
      大卫·索博洛夫 / David Sobolov | 配 犀牛勇士 / 圈套 Rhinox / Battletrap
      汤加伊·基里萨 / Tongayi Chirisa | 饰 黄豹勇士 Cheetor
      约翰·迪·马吉欧 / John Di Maggio | 配 同温层 Stratosphere
      迪恩·斯科特·瓦兹奎兹 / Dean Scott Vazquez | 饰 克里斯 Kris
      托贝·纽维吉 / Tobe Nwigwe | 饰 瑞克 Reek
      劳伦·维勒斯 / Lauren Vélez | 饰 迪亚兹太太 Mrs. Diaz
      莎拉·斯蒂尔斯 / Sarah Stiles | 饰 吉莉安 Jillian
      多梅尼克·迪罗萨 / Domenic Di Rosa | 饰 巴士司机 Bus Driver
◎编  剧 卓比·哈罗德 / Joby Harold
      达内尔·梅耶尔 / Darnell Metayer
      乔什·皮特斯 / Josh Peters
      埃里希·霍贝尔 / Erich Hoeber
      乔·霍贝尔 / Jon Hoeber
      马特·霍洛维 / Matt Holloway
      阿特·马库姆 / Art Marcum
      肯·诺兰 / Ken Nolan
◎制  片  人 迈克尔·贝 / Michael Bay
      史蒂文·斯皮尔伯格 / Steven Spielberg
      洛伦佐·迪·博纳文图拉 / Lorenzo di Bonaventura
◎摄  影 恩里克·切迪亚克 / Enrique Chediak
◎动  画 亚历山大·安东尼亚德斯 / Alexander Antoniades
◎简  介 
  故事重返上世纪90年代,终极反派宇宙大帝(科尔曼·多明戈 Colman Domingo 配音)从天而降,驱使以天灾(彼特·丁拉基 Peter Dinklage 配音)为首的恐惧兽掀起地球危机。绝境之中,蛰伏许久的巨无霸终觉醒,联合汽车人变形出发,一场前所未有的决战即将上演。
  1. Video
  2. ID                                       : 1
  3. Format                                   : HEVC
  4. Format/Info                              : High Efficiency Video Coding
  5. Format profile                           : Main 10@L5@High
  6. HDR format                               : Dolby Vision, Version 1.0, dvhe.05.06, BL+RPU
  7. Codec ID                                 : hev1
  8. Codec ID/Info                            : High Efficiency Video Coding
  9. Duration                                 : 2 h 7 min
  10. Bit rate                                 : 14.4 Mb/s
  11. Width                                    : 3 840 pixels
  12. Height                                   : 1 608 pixels
  13. Display aspect ratio                     : 2.40:1
  14. Frame rate mode                          : Variable
  15. Frame rate                               : 23.976 (24000/1001) FPS
  16. Minimum frame rate                       : 5.988 FPS
  17. Maximum frame rate                       : 16 000.000 FPS
  18. Color space                              : YUV
  19. Chroma subsampling                       : 4:2:0
  20. Bit depth                                : 10 bits
  21. Bits/(Pixel*Frame)                       : 0.097
  22. Stream size                              : 12.8 GiB (95%)
  23. Language                                 : English
  24. Encoded date                             : 2023-07-11 15:39:29 UTC
  25. Tagged date                              : 2023-07-11 15:39:29 UTC
  26. Menus                                    : 7
  27. mdhd_Duration                            : 7629955
  28. Codec configuration box                  : hvcC+dvcC
  29. Audio
  30. ID                                       : 2
  31. Format                                   : E-AC-3 JOC
  32. Format/Info                              : Enhanced AC-3 with Joint Object Coding
  33. Commercial name                          : Dolby Digital Plus with Dolby Atmos
  34. Codec ID                                 : ec-3
  35. Duration                                 : 2 h 7 min
  36. Bit rate mode                            : Constant
  37. Bit rate                                 : 768 kb/s
  38. Channel(s)                               : 6 channels
  39. Channel layout                           : L R C LFE Ls Rs
  40. Sampling rate                            : 48.0 kHz
  41. Frame rate                               : 31.250 FPS (1536 SPF)
  42. Compression mode                         : Lossy
  43. Stream size                              : 698 MiB (5%)
  44. Language                                 : English
  45. Service kind                             : Complete Main
  46. Default                                  : Yes
  47. Alternate group                          : 1
  48. Encoded date                             : 2023-07-11 15:39:29 UTC
  49. Tagged date                              : 2023-07-11 15:39:29 UTC
  50. Menus                                    : 7
  51. Complexity index                         : Not present / 16
  52. Number of dynamic objects                : 15
  53. Bed channel count                        : 1 channel
  54. Bed channel configuration                : LFE
复制代码









变形金刚:超能勇士崛起.Transformers.Rise.Of.The.Beasts.2023.2160p.Dolby.Vision.Multi.Sub.DDP5.1.Atmos.DV.x265.MP4-BEN.THE.MEN 13.48GB

Transformers.Rise.Of.The.Beasts.2023.2160p.Dolby.Vision.Multi.Sub.DDP5.1.Atmos.D.torrent

68.48 KB, 下载次数: 49, 下载积分: 蓝光币 -2

回复

使用道具 举报

0

精华

0

好友

0

听众

新手上路

Rank: 1

蓝光币
0
发表于 2023-7-12 23:59:34 | 显示全部楼层
谢谢楼主分享
回复

使用道具 举报

0

精华

0

好友

0

听众

新手上路

Rank: 1

蓝光币
0
发表于 2023-7-17 10:09:00 | 显示全部楼层
非常感谢分享
回复

使用道具 举报

0

精华

0

好友

3

听众

新手上路

Rank: 1

蓝光币
34
发表于 2023-8-15 16:35:35 | 显示全部楼层
楼主分享的资源非常给力
回复

使用道具 举报

0

精华

0

好友

1

听众

新手上路

Rank: 1

蓝光币
0
发表于 2023-8-25 21:47:59 | 显示全部楼层

非常感谢分享
回复

使用道具 举报

0

精华

0

好友

1

听众

新手上路

Rank: 1

蓝光币
0
发表于 2023-8-25 21:48:27 | 显示全部楼层

非常感谢分享
回复

使用道具 举报

您需要登录后才可以回帖 登录 | 立即注册

本版积分规则

QQ|Archiver|手机版|小黑屋|蓝光电影网

GMT+8, 2024-7-24 19:32 , Processed in 0.070043 second(s), 30 queries .

Powered by Discuz! X3.4

Copyright © 2001-2020, Tencent Cloud.

快速回复 返回顶部 返回列表